(Free Improvisation / Avant Prog) [CD] Area (feat. Steve Lacy, Paul Litton) - Event \'76 - 1979 (2007), FLAC (tracks+.cue), lossless {Japan}

Ответить на тему
Статистика раздачи [Обновить пиров]
Размер:  226 MB   |    Зарегистрирован:  1 месяц   |    Скачан:  0 раз

Полного источника не было: Никогда

 
   
 
 
 
Автор Сообщение

torrentc.info

Создавать темы 15-Окт-2018 20:10

[Цитировать]

Area / Event '76
[img=right]https://b.radikal.ru/b29/1810/b9/d16f00543576.png[/img]
Жанр: Free Improvisation / Avant Prog
Носитель: CD
Страна-производитель диска: [img]https://static.t-ru.org/flags/87.gif[/img] Japan
Год издания: 1979 (2007)
Издатель (лейбл): Strange Days
Номер по каталогу: POCE-1162
Страна группы: [img]https://static.t-ru.org/flags/84.gif[/img] Italy
Аудиокодек: FLAC (*.flac)
Тип рипа: tracks+.cue
Битрейт аудио: lossless
Продолжительность: 39:39
Источник: собственный рип
Наличие сканов в содержимом раздачи: да
Треклист:
1. Caos II Parte (1) 20:39
2. Caos II Parte (2) 9:25
3. Event '76 9:35

Лог создания рипа

Exact Audio Copy V1.0 beta 1 from 15. November 2010
EAC extraction logfile from 26. September 2012, 21:23
Area / Event 76
Used drive : Optiarc DVD RW AD-7240S Adapter: 2 ID: 1
Read mode : SecureUtilize accurate stream : YesDefeat audio cache : YesMake use of C2 pointers : No
Read offset correction : 48Overread into Lead-In and Lead-Out : NoFill up missing offset samples with silence : YesDelete leading and trailing silent blocks : NoNull samples used in CRC calculations : YesUsed interface : Native Win32 interface for Win NT & 2000Gap handling : Appended to previous track
Used output format : User Defined EncoderSelected bitrate : 32 kBit/sQuality : HighAdd ID3 tag : NoCommand line compressor : C:\Program Files (x86)\Exact Audio Copy New\FLAC\FLAC.EXEAdditional command line options : -8 -V -T "ARTIST=%a" -T "TITLE=%t" -T "ALBUM=%g" -T "DATE=%y" -T "TRACKNUMBER=%n" -T "GENRE=%m" -T "COMMENT=EAC" %s
TOC of the extracted CD
Track | Start | Length | Start sector | End sector --------------------------------------------------------- 1 | 0:00.00 | 20:38.49 | 0 | 92898 2 | 20:38.49 | 9:25.01 | 92899 | 135274 3 | 30:03.50 | 9:35.10 | 135275 | 178409
Track 1
Filename C:\Lossless\Area - Event 76 (1979) [FLAC] {Strange Days POCE-1162}\01 - Caos II Parte (1).wav
Pre-gap length 0:00:02.00
Peak level 95.1 % Extraction speed 3.1 X Track quality 100.0 % Test CRC 7925C254 Copy CRC 7925C254 Accurately ripped (confidence 2) [52962FAE] Copy OK
Track 2
Filename C:\Lossless\Area - Event 76 (1979) [FLAC] {Strange Days POCE-1162}\02 - Caos II Parte (2).wav
Peak level 79.6 % Extraction speed 3.8 X Track quality 100.0 % Test CRC FD323B0E Copy CRC FD323B0E Accurately ripped (confidence 2) [73D58ADD] Copy OK
Track 3
Filename C:\Lossless\Area - Event 76 (1979) [FLAC] {Strange Days POCE-1162}\03 - Event 76.wav
Peak level 76.7 % Extraction speed 4.0 X Track quality 99.9 % Test CRC 29D01849 Copy CRC 29D01849 Accurately ripped (confidence 2) [65181C5F] Copy OK
All tracks accurately ripped
No errors occurred
End of status report
==== Log checksum 6BBEF7CEF9D628A44B061C608E3B50E7B64E4F76F88B21693F4FC5A80D5CBD12 ====

Содержание индексной карты (.CUE)

REM GENRE "Free Improvisation / Avant Prog"REM DATE 1979REM DISCID 17094A03REM COMMENT "ExactAudioCopy v1.0b1"PERFORMER "Area"TITLE "Event '76"FILE "01 - Caos II Parte (1).wav" WAVE TRACK 01 AUDIO TITLE "Caos II Parte (1)" PERFORMER "Area" INDEX 01 00:00:00FILE "02 - Caos II Parte (2).wav" WAVE TRACK 02 AUDIO TITLE "Caos II Parte (2)" PERFORMER "Area" INDEX 01 00:00:00FILE "03 - Event 76.wav" WAVE TRACK 03 AUDIO TITLE "Event '76" PERFORMER "Area" INDEX 01 00:00:00

Скриншот спектра частот

Японское издание
[img]https://a.radikal.ru/a10/1810/e7/3097b1e74b85t.jpg[/img]
Итальянское издание (Cramps)
[img]https://c.radikal.ru/c15/1810/1e/a5107373e9b1t.jpg[/img]

Об альбоме

Event '76 is the seventh album of the jazz fusion band Area, and the second live album. It was recorded in Milan's Università Statale in 1976, though released in 1979. Ares Tavolazzi and Giulio Capiozzo are noticeably absent, as when this album was recorded, they had temporarily left the band, only to return a few months later. This album is noticeable for featuring Steve Lacy on saxophone and Paul Lytton on percussion, and it is also noticeable for featuring a lengthy version of "Caos IIa Parte", which was split between the two sides of the LP due to time reasons. The live version of "Caos IIa Parte" was more improvised than the studio piece: each musician was given a sheet of paper in which there was written a word ( "sex", "irony", "violence" ) and he had to interpret it for three minutes, then change sheet of paper. Each musician had a different sheet of paper. The title track is a variation of the song "SCUM" from the album Maledetti (Maudits). An aftershow interview with Tofani, Fariselli and Stratos was released as a bonus track on some editions of Maledetti (Maudits). This was the last album featuring Paolo Tofani (he left the band in late 1977), and Demetrio Stratos, who died some months after the release of this album.
wikipedia.org

Состав

Patrizio Fariselli — piano
Steve Lacy — soprano sax
Paul Litton — percussions
Demetrio Stratos — vocals
Paolo Tofani — guitar, Tcherapnin synthesizer
Скажем прямо, раздел для этого альбома не очень подходящий. Но поскольку вся «Area» именно здесь...


[torrentc.info]_t_5628753.torrent
Торрент: Зарегистрирован ·  [ 2018-10-15 20:09 ] ·  c3de276ab137a7904fdb58e32e39820621d8b34e

19 KB

Статус: проверено
Скачан: 0 раз
Размер: 226 MB
Оценка: 
(Голосов: 0)
Сказали спасибо: 0  Спасибо
Похожие темы
[Профиль]    [ЛС]
Показать сообщения:    
Ответить на тему

Текущее время: Сегодня 12:56

Часовой пояс: GMT + 7



Вы не можете начинать темы
Вы не можете отвечать на сообщения
Вы не можете редактировать свои сообщения
Вы не можете удалять свои сообщения
Вы не можете голосовать в опросах
Вы не можете прикреплять файлы к сообщениям
Вы можете скачивать файлы