(Blues) [CD] Tony Lee King - Redemption - 2017, FLAC (tracks+.cue), lossless

Ответить на тему
Статистика раздачи [Обновить пиров]
Размер:  224 MB   |    Зарегистрирован:  2 месяца 3 дня   |    Скачан:  0 раз

Полного источника не было: Никогда

 
   
 
 
 
Автор Сообщение

torrentc.info

Создавать темы 15-Окт-2018 18:59

[Цитировать]

Tony Lee King - Redemption
Жанр: Blues
Страна-производитель диска: Croatia
Год издания диска: 2017
Издатель (лейбл): Blue Life Records
Номер по каталогу: CD2017001
Страна: Croatia
Аудиокодек: FLAC (*.flac)
Тип рипа: tracks+.cue
Битрейт аудио: lossless
Продолжительность: 00:38:15
Источник (релизер): Sket4er
Наличие сканов в содержимом раздачи: да
Треклист:
01. Too Many People (M.C.Queen, Tony Lee King) 03:31
02. Can't Go On (Tony Lee King) 03:27
03. Butterflies (M.C.Queen, Tony Lee King) 03:56
04. I've Had Enough (A.Bernardi, Tony Lee King) 03:47
05. All Alone (Tony Lee King) 04:29
06. Anytime Is The Right Time (Tony Lee King) 03:01
07. Baby (M.C.Queen, Tony Lee King) 03:46
08. Hey Man (Tony Lee King) 05:00
09. Turn Around (Tony Lee King) 03:35
10. What's The Money (M.C.Queen, Tony Lee King) 03:43

Лог создания рипа

Exact Audio Copy V1.3 from 2. September 2016
EAC extraction logfile from 9. October 2018, 11:31
Tony Lee King / Redemption
Used drive : TSSTcorpCDDVDW SH-224DB Adapter: 1 ID: 0
Read mode : SecureUtilize accurate stream : YesDefeat audio cache : YesMake use of C2 pointers : No
Read offset correction : 6Overread into Lead-In and Lead-Out : NoFill up missing offset samples with silence : YesDelete leading and trailing silent blocks : NoNull samples used in CRC calculations : YesUsed interface : Native Win32 interface for Win NT & 2000Gap handling : Appended to previous track
Used output format : User Defined EncoderSelected bitrate : 1024 kBit/sQuality : HighAdd ID3 tag : NoCommand line compressor : C:\Program Files (x86)\Exact Audio Copy\win64\flac.exeAdditional command line options : -8 -V -T "ARTIST=%artist%" -T "TITLE=%title%" -T "ALBUM=%albumtitle%" -T "DATE=%year%" -T "TRACKNUMBER=%tracknr%" -T "GENRE=%genre%" -T "COMMENT=%comment%" %source% -o %dest%
TOC of the extracted CD
Track | Start | Length | Start sector | End sector --------------------------------------------------------- 1 | 0:00.00 | 3:30.40 | 0 | 15789 2 | 3:30.40 | 3:27.15 | 15790 | 31329 3 | 6:57.55 | 3:56.09 | 31330 | 49038 4 | 10:53.64 | 3:46.57 | 49039 | 66045 5 | 14:40.46 | 4:29.32 | 66046 | 86252 6 | 19:10.03 | 3:01.10 | 86253 | 99837 7 | 22:11.13 | 3:46.06 | 99838 | 116793 8 | 25:57.19 | 5:00.01 | 116794 | 139294 9 | 30:57.20 | 3:35.02 | 139295 | 155421 10 | 34:32.22 | 3:43.12 | 155422 | 172158
Track 1
Filename F:\Sket4er\Tony Lee King – Redemption 2017\01 Too Many People.wav
Pre-gap length 0:00:02.00
Peak level 96.9 % Extraction speed 1.9 X Track quality 100.0 % Test CRC B591D1FE Copy CRC B591D1FE Track not present in AccurateRip database Copy OK
Track 2
Filename F:\Sket4er\Tony Lee King – Redemption 2017\02 Can't Go On.wav
Peak level 96.7 % Extraction speed 2.0 X Track quality 100.0 % Test CRC ECBB2863 Copy CRC ECBB2863 Track not present in AccurateRip database Copy OK
Track 3
Filename F:\Sket4er\Tony Lee King – Redemption 2017\03 Butterflies.wav
Peak level 96.2 % Extraction speed 2.2 X Track quality 100.0 % Test CRC 3EBC3A32 Copy CRC 3EBC3A32 Track not present in AccurateRip database Copy OK
Track 4
Filename F:\Sket4er\Tony Lee King – Redemption 2017\04 I've Had Enough Now.wav
Peak level 97.9 % Extraction speed 1.9 X Track quality 99.9 % Test CRC C018043A Copy CRC C018043A Track not present in AccurateRip database Copy OK
Track 5
Filename F:\Sket4er\Tony Lee King – Redemption 2017\05 All Alone.wav
Peak level 96.1 % Extraction speed 2.6 X Track quality 100.0 % Test CRC 3686BC2A Copy CRC 3686BC2A Track not present in AccurateRip database Copy OK
Track 6
Filename F:\Sket4er\Tony Lee King – Redemption 2017\06 Anytime Is The Right Time.wav
Peak level 98.2 % Extraction speed 2.5 X Track quality 100.0 % Test CRC BA631381 Copy CRC BA631381 Track not present in AccurateRip database Copy OK
Track 7
Filename F:\Sket4er\Tony Lee King – Redemption 2017\07 Baby.wav
Peak level 97.9 % Extraction speed 2.2 X Track quality 99.9 % Test CRC 56A37F7A Copy CRC 56A37F7A Track not present in AccurateRip database Copy OK
Track 8
Filename F:\Sket4er\Tony Lee King – Redemption 2017\08 Hey Man.wav
Peak level 96.9 % Extraction speed 3.0 X Track quality 100.0 % Test CRC 4B3057D9 Copy CRC 4B3057D9 Track not present in AccurateRip database Copy OK
Track 9
Filename F:\Sket4er\Tony Lee King – Redemption 2017\09 Turn Around.wav
Peak level 98.4 % Extraction speed 3.0 X Track quality 100.0 % Test CRC 1CEC1F6F Copy CRC 1CEC1F6F Track not present in AccurateRip database Copy OK
Track 10
Filename F:\Sket4er\Tony Lee King – Redemption 2017\10 What's The Money.wav
Peak level 96.9 % Extraction speed 3.1 X Track quality 100.0 % Test CRC E5937EA6 Copy CRC E5937EA6 Track not present in AccurateRip database Copy OK
None of the tracks are present in the AccurateRip database
No errors occurred
End of status report
---- CUETools DB Plugin V2.1.6
[CTDB TOCID: sLZ5Fqm71bog4liFCVQRnY2SfF0-] disk not present in databaseSubmit result: sLZ5Fqm71bog4liFCVQRnY2SfF0- has been uploaded
==== Log checksum 7024952C76B3B4AD33D8E7A3CFCB3326B10181FB9A8209012A0BA27534E433B8 ====

Содержание индексной карты (.CUE)

REM GENRE BluesREM DATE 2017REM DISCID 8208F70AREM COMMENT "ExactAudioCopy v1.3"PERFORMER "Tony Lee King"TITLE "Redemption "REM COMPOSER ""FILE "01 Too Many People.wav" WAVE TRACK 01 AUDIO TITLE "Too Many People" PERFORMER "Tony Lee King" REM COMPOSER "" INDEX 01 00:00:00FILE "02 Can't Go On.wav" WAVE TRACK 02 AUDIO TITLE "Can't Go On" PERFORMER "Tony Lee King" REM COMPOSER "" INDEX 01 00:00:00FILE "03 Butterflies.wav" WAVE TRACK 03 AUDIO TITLE "Butterflies" PERFORMER "Tony Lee King" REM COMPOSER "" INDEX 01 00:00:00FILE "04 I've Had Enough Now.wav" WAVE TRACK 04 AUDIO TITLE "I've Had Enough Now" PERFORMER "Tony Lee King" REM COMPOSER "" INDEX 01 00:00:00FILE "05 All Alone.wav" WAVE TRACK 05 AUDIO TITLE "All Alone" PERFORMER "Tony Lee King" REM COMPOSER "" INDEX 01 00:00:00FILE "06 Anytime Is The Right Time.wav" WAVE TRACK 06 AUDIO TITLE "Anytime Is The Right Time" PERFORMER "Tony Lee King" REM COMPOSER "" INDEX 01 00:00:00FILE "07 Baby.wav" WAVE TRACK 07 AUDIO TITLE "Baby" PERFORMER "Tony Lee King" REM COMPOSER "" INDEX 01 00:00:00FILE "08 Hey Man.wav" WAVE TRACK 08 AUDIO TITLE "Hey Man" PERFORMER "Tony Lee King" REM COMPOSER "" INDEX 01 00:00:00FILE "09 Turn Around.wav" WAVE TRACK 09 AUDIO TITLE "Turn Around" PERFORMER "Tony Lee King" REM COMPOSER "" INDEX 01 00:00:00FILE "10 What's The Money.wav" WAVE TRACK 10 AUDIO TITLE "What's The Money" PERFORMER "Tony Lee King" REM COMPOSER "" INDEX 01 00:00:00

Лог проверки качества

-----------------------
DON'T MODIFY THIS FILE
-----------------------
PERFORMER: auCDtect Task Manager, ver. 1.5.1RC4 build 1.5.1.5Copyright (c) 2008-2010 y-soft. All rights reservedhttp://y-soft.org
ANALYZER: auCDtect: CD records authenticity detector, version 0.8.2Copyright (c) 2004 Oleg Berngardt. All rights reserved.Copyright (c) 2004 Alexander Djourik. All rights reserved.
FILE: 10 What's The Money.flac Size: 21786318 Hash: 4FE4999A8545517B262C8543DA1F2FF9 Accuracy: -m0 Conclusion: MPEG 95% Signature: 9A3ACACA768ED096C86550947E9C22B7D69CB3BC FILE: 09 Turn Around.flac Size: 21571207 Hash: 088FDE52355EC2848EA55015594D9AF9 Accuracy: -m0 Conclusion: CDDA 99% Signature: 2CEE90951692F173BE6EE5147BCF918C86A191E8FILE: 08 Hey Man.flac Size: 30356805 Hash: ACEF198E3D8AD6863D117B7CFF90693F Accuracy: -m0 Conclusion: CDDA 100% Signature: FD6F177BBABDB25EDDDC78AE51E575524D7C78F4FILE: 07 Baby.flac Size: 23237548 Hash: 3A617191E380588AA2089C7B425A1C4D Accuracy: -m0 Conclusion: MPEG 95% Signature: B1D8F4E2B092203024AAA586B2EE42D8A702D1C9 FILE: 06 Anytime Is The Right Time.flac Size: 20066028 Hash: 9A79369FB94E9BAE73FE23B7DD8D4FE0 Accuracy: -m0 Conclusion: CDDA 100% Signature: 98C1FC30C04B68989BCD0423E6B794F1E7480DDAFILE: 05 All Alone.flac Size: 24803536 Hash: F45651CD5E839354AC858EAD934C0C3B Accuracy: -m0 Conclusion: CDDA 99% Signature: 5AE1BFA33B7CF997A3B2928569849B9A883135E5FILE: 04 I've Had Enough Now.flac Size: 24521676 Hash: 21CC459439E4F757CE529F9D0463DE41 Accuracy: -m0 Conclusion: CDDA 100% Signature: C63736848ABA94F84A3BC24DFF77ABF82EBDAC2EFILE: 03 Butterflies.flac Size: 20473229 Hash: 6F3E8C0A6FEB33341E112508B42620F1 Accuracy: -m0 Conclusion: CDDA 100% Signature: 32E77E25E575A016C05F248ECC7DBA6835A51E6EFILE: 02 Can't Go On.flac Size: 22500082 Hash: 2A479F4E75A113DC28E0BCBA3F159CE4 Accuracy: -m0 Conclusion: MPEG 95% Signature: 8EA15D4229BF0F366B3CCAD02A798DE15B095631 FILE: 01 Too Many People.flac Size: 21427043 Hash: 593F38282B6A0D5D4F515B3426DC7254 Accuracy: -m0 Conclusion: MPEG 95% Signature: B21D8AAFB68E114D9EF86D10A3BDB00219503BEA

DR log

foobar2000 1.3.9 / Замер динамического диапазона (DR) 1.1.1Дата отчёта: 2018-10-09 16:26:42
--------------------------------------------------------------------------------Анализ: Tony Lee King / Redemption--------------------------------------------------------------------------------
DR Пики RMS Продолжительность трека--------------------------------------------------------------------------------DR9 -0.27 дБ -11.35 дБ 3:31 01-Too Many PeopleDR10 -0.28 дБ -11.32 дБ 3:27 02-Can't Go OnDR10 -0.33 дБ -12.38 дБ 3:56 03-ButterfliesDR9 -0.18 дБ -10.69 дБ 3:47 04-I've Had Enough NowDR11 -0.34 дБ -13.06 дБ 4:29 05-All AloneDR9 -0.15 дБ -10.48 дБ 3:01 06-Anytime Is The Right TimeDR10 -0.18 дБ -11.55 дБ 3:46 07-BabyDR8 -0.27 дБ -10.43 дБ 5:00 08-Hey ManDR11 -0.13 дБ -12.59 дБ 3:35 09-Turn AroundDR10 -0.27 дБ -11.93 дБ 3:43 10-What's The Money--------------------------------------------------------------------------------
Количество треков: 10Реальные значения DR: DR10
Частота: 44100 ГцКаналов: 2Разрядность: 16Битрейт: 779 кбит/сКодек: FLAC================================================================================
Доп. информация

Состав

Tony Lee King - Vocals, Lead & Rhythm Guitar
Matt Round - Bass
Nicolaj Bloch - Rhythm Guitar
Richard Causon - Keyboards & Percussion
Simon Price - Drums
Ric Sanders - Violin
Lucy Zirins - Backing Vocals
Michael Watts - Classical Guitar on "Too Many People"
Michael Messer - Slide Guitar

Об исполнителе

After five years away from the live music scene, having been forced to sing on the streets because he was so disillusioned with the way the industry had treated him,Tony Lee King made an amazing comeback at the Kastav Blues Festival in 2014.
As well as gaining a whole new audience that night, Tony Lee King met British recording artist, producer and Honorary Citizen of the City of Kastav, Mr. Michael Messer.
A year later in 2015, Tony Lee King and Michael Messer were both performing again at the Kastav Blues Festival and discussions started about the idea of them working together in London to produce a new TLK album with a new sound.
After many emails and phone calls, Tony spoke with his Croatian friends, Gordana and Željko Mendaš, and they agreed to become the executive producers and fund the making of this new album, which was to be titled, REDEMPTION.
Following a trip to Memphis to perform at BB King’s Blues Club, Tony Lee King and Michael Messer met again in Kastav and plans were finalised for Tony Lee King to record an album in London with Michael Messer as the producer.
Michael Messer put together a band of some of the UK’s finest musicians and also brought in Mr. Richard Causon to be the co-producer. Richard has worked with Sir Tom Jones, Alanis Morrissette, Ryan Adams, The Jayhawks, and many other great artists.
REDEMPTION was recorded at London’s Leif Storm Studios in September 2016.
This new album is a true REDEMPTION for TONY LEE KING.
“That night at the Kastav Blues Festival in 2014, as soon as I heard Tony Lee King singing and playing his guitar, I knew I was in the presence of a special artist whose soulful music reached out and touched his audience. I am very proud of the album we recorded together in London. The songs are from the heart and were written and performed with a rare passion and depth. REDEMPTION is the real Tony Lee King and I hope the music will reach out and touch many souls”
Michael Messer
http://www.artistcamp.com/tony-lee-king/redemption/9008798242290/index.html
https://www.qobuz.com/gb-en/album/redemption-tony-lee-king/9008798242290
https://www.amazon.com/Redemption-Tony-Lee-King/dp/B0778QLKQV
https://tonyleeking.eu


[torrentc.info]_t_5626485.torrent
Торрент: Зарегистрирован ·  [ 2018-10-15 18:57 ] ·  38796ff34db404acb7fe6233fc458fc84f592e19

19 KB

Статус: проверено
Скачан: 0 раз
Размер: 224 MB
Оценка: 
(Голосов: 0)
Сказали спасибо: 0  Спасибо
Похожие темы
[Профиль]    [ЛС]
Показать сообщения:    
Ответить на тему

Текущее время: Сегодня 08:27

Часовой пояс: GMT + 7



Вы не можете начинать темы
Вы не можете отвечать на сообщения
Вы не можете редактировать свои сообщения
Вы не можете удалять свои сообщения
Вы не можете голосовать в опросах
Вы не можете прикреплять файлы к сообщениям
Вы можете скачивать файлы