Привал странников (Александр Бланк) [1990, криминальный детектив, VHSRip] [Полная версия]

Ответить на тему
Статистика раздачи [Обновить пиров]
Размер:  3.26 GB   |    Зарегистрирован:  1 месяц 8 дней   |    Скачан:  0 раз

Полного источника не было: Никогда

 
   
 
 
 
Автор Сообщение

torrentc.info

Создавать темы 14-Окт-2018 14:04

[Цитировать]

Привал странников
Полная версия
[img=right]https://i2.imageban.ru/out/2018/10/14/ee4ff743358f7...651915.jpg[/img]
Жанр: криминальный детектив
Год выхода: 1990
Продолжительность: 01:08:45 + 01:08:05 + 01:11:37
Режиссёр: Александр Бланк
В ролях: Юрий Стосков, Игорь Богодух, Георгий Кавтарадзе, Алексей Симановский, Юрий Соломин, Михаил Волков, Сергей Проханов, Анатолий Равикович, Сергей Яковлев, Александр Бордуков, Владимир Борисов, Павел Белозеров, Валерия Устинова, Сергей Балабанов
Описание: Кафе, в котором отставной полковник милиции Смирнов был накануне, исчезло... После того, как он успевает поговорить с участковым, тот погибает. И тогда Смирнов самостоятельно берется за расследование загадочного происшествия.
Доп. информация: Оцифровка VHS (личный архив) и получение VHSRip alenavova
Эксклюзив для Torrentc. При размещении данного релиза на других сайтах ссылка на автора alenavova обязательна.


Сэмпл: https://yadi.sk/i/IiTCF84UqCMTCw
Качество видео: VHSRip
Формат файла: AVI
Видео: 704x528 (1.33:1), 25 fps, XviD build 73 ~2064 kbps avg, 0.22 bit/pixel
Аудио: 48 kHz, AC3 Dolby Digital, 2/0 (L,R) ch, ~192 kbps

MediaInfo

Привал странников [by alenavova]\Привал странников (01).avi
Format : AVI
Format/Info : Audio Video Interleave
File size : 1.09 GiB
Duration : 1 h 8 min
Overall bit rate : 2 266 kb/s
Writing application : VirtualDubMod 1.5.10.3 | www.virtualdub-fr.org || (build 2550/release)
Writing library : VirtualDubMod build 2550/release
Video
ID : 0
Format : MPEG-4 Visual
Format profile : Advanced Simple@L5
Format settings : BVOP2 / Custom Matrix
Format settings, BVOP : 2
Format settings, QPel : No
Format settings, GMC : No warppoints
Format settings, Matrix : Custom
Codec ID : XVID
Codec ID/Hint : XviD
Duration : 1 h 8 min
Bit rate : 2 064 kb/s
Width : 704 pixels
Height : 528 pixels
Display aspect ratio : 4:3
Frame rate : 25.000 FPS
Color space : YUV
Chroma subsampling : 4:2:0
Bit depth : 8 bits
Scan type : Progressive
Compression mode : Lossy
Bits/(Pixel*Frame) : 0.222
Stream size : 1 015 MiB (91%)
Writing library : XviD 73
Audio
ID : 1
Format : AC-3
Format/Info : Audio Coding 3
Codec ID : 2000
Duration : 1 h 8 min
Bit rate mode : Constant
Bit rate : 192 kb/s
Channel(s) : 2 channels
Channel positions : Front: L R
Sampling rate : 48.0 kHz
Frame rate : 31.250 FPS (1536 SPF)
Bit depth : 16 bits
Compression mode : Lossy
Stream size : 94.4 MiB (8%)
Alignment : Split accross interleaves
Interleave, duration : 40 ms (1.00 video frame)
Interleave, preload duratio : 500 ms
Service kind : Complete Main

AviInfo по сериям

File: Привал странников (01).avi
FileSize: 1114.32 Mb ( 1 168 453 632 bytes )
Play length: 01:08:45.359 (103134 frames)
Subtitles: Not Present
Video: 704x528 (1.33:1), 25 fps, XviD build 73 ~2064 kbps avg, 0.22 bit/pixel
Audio: 48 kHz, AC3 Dolby Digital, 2/0 (L,R) ch, ~192 kbps
File: Привал странников (02).avi
FileSize: 1113.40 Mb ( 1 167 482 880 bytes )
Play length: 01:08:05.120 (102128 frames)
Subtitles: Not Present
Video: 704x528 (1.33:1), 25 fps, XviD build 73 ~2084 kbps avg, 0.22 bit/pixel
Audio: 48 kHz, AC3 Dolby Digital, 2/0 (L,R) ch, ~192 kbps
File: Привал странников (03).avi
FileSize: 1113.30 Mb ( 1 167 376 384 bytes )
Play length: 01:11:37.680 (107442 frames)
Subtitles: Not Present
Video: 704x528 (1.33:1), 25 fps, XviD build 73 ~1971 kbps avg, 0.21 bit/pixel
Audio: 48 kHz, AC3 Dolby Digital, 2/0 (L,R) ch, ~192 kbps


[torrentc.info]_t_5628386.torrent
Торрент: Зарегистрирован ·  [ 2018-10-14 14:04 ] ·  6ea212aceaeee2e120a07e205e26cc7b4ba22883

17 KB

Статус: проверено
Скачан: 0 раз
Размер: 3.26 GB
Оценка: 
(Голосов: 0)
Сказали спасибо: 0  Спасибо
Похожие темы
[Профиль]    [ЛС]
Показать сообщения:    
Ответить на тему

Текущее время: Сегодня 17:50

Часовой пояс: GMT + 7



Вы не можете начинать темы
Вы не можете отвечать на сообщения
Вы не можете редактировать свои сообщения
Вы не можете удалять свои сообщения
Вы не можете голосовать в опросах
Вы не можете прикреплять файлы к сообщениям
Вы можете скачивать файлы