Субботние пародии / Samedi c\'est parodie (выпуск 1) (Массимо Манганаро / Massimo Manganaro) [2018, Франция, юмористическое шоу, DVB] Original (Fra) + Sub (Rus, Eng, Fra, Deu)

Ответить на тему
Статистика раздачи [Обновить пиров]
Размер:  2.41 GB   |    Зарегистрирован:  1 месяц 5 дней   |    Скачан:  0 раз

Полного источника не было: Никогда

 
   
 
 
 
Автор Сообщение

torrentc.info

Создавать темы 14-Окт-2018 12:52

[Цитировать]

Субботние пародии
Samedi c'est parodie-[img=right]https://i1.imageban.ru/out/2018/10/04/e187b0a358791...0a2f2a.png[/img]Дата/Год выхода: 2018
Страна: Франция
Жанр: юмористическое шоу
Продолжительность: 01:43:16
Перевод: Субтитры
Доп. инфо о переводе: русский перевод Н.Коттель (ECLAIR)
Русские субтитры: есть
Формат файла субтитров: prerendered (IDX+SUB), softsub (SRT)
Доп. информация о субтитрах: русские, немецкие, нидерландские, румынские, испанские - (IDX+SUB); английские, французские - (SRT)
Оригинальная аудиодорожка: французский
Режиссер: Массимо Манганаро / Massimo Manganaro
В ролях: Франк Дюбоск, Джефф Панаклок, Люсьен Жан-Батист, Паскаль Лежитимюс, Марк-Антуан Ле Брет, Арно Цамер, Тома Вилла, Фредерик Белль, Лионель Астье, Николь Феррони, Каролина Виньо, Артюр, Жюльен Курбе
Телеканал: TV5MONDE Europe
Описание: Канал France 2 французского телевидения начинает новый юмористический развлекательный проект "Субботние пародии". В компании юмористов, комиков и актеров голубого экрана Мишель Дрюкер пересматривает французское телевизионное наследие. Игры, сериалы, журналы, развлечения... пародируются самые знаменитые и легендарные передачи французского телевидения. Вас ожидает юмор и хорошее настроение!
Доп. информация: Hot Bird (13.0°E) DVB-S

качество: DVB
формат: MKV
Видео: MPEG Video 2, 720x576 (16:9), 25 fps, ~3076 kbps avg, 0.297 bit/pixel
Аудио: MPEG Audio 2, 2 ch, 48 kHz, 192.00 kbps - французский

Список выпусков/серий

01. Выпуск от 17.02.2018

MediaInfo

GeneralUnique ID : 147824877797736970910969723635279794006 (0x6F36092E9E8C873CB073DB8722DF0F56)Complete name : 01_Samedi_c'est_parodie(17.02.2018)DVB.mkvFormat : MatroskaFormat version : Version 2File size : 2.41 GiBDuration : 1 h 43 minOverall bit rate mode : VariableOverall bit rate : 3 335 kb/sMovie name : Samedi c'est parodieReleased date : 2018-02-17Encoded date : UTC 2018-10-04 06:04:24Writing application : mkvmerge v27.0.0 ('Metropolis') 64-bitWriting library : libebml v1.3.6 + libmatroska v1.4.9Cover : YesAttachments : cover.jpg / small_cover.jpgDIRECTOR : Massimo ManganaroGENRE : ShowIMDB : tt8011590KEYWORDS : TorrentcLAW_RATING : 16+
VideoID : 1Format : MPEG VideoFormat version : Version 2Format profile : Main@MainFormat settings : CustomMatrix / BVOPFormat settings, BVOP : YesFormat settings, Matrix : CustomFormat settings, GOP : VariableFormat settings, picture structure : FrameCodec ID : V_MPEG2Codec ID/Info : MPEG 1 or 2 VideoDuration : 1 h 43 minBit rate mode : VariableBit rate : 3 076 kb/sWidth : 720 pixelsHeight : 576 pixelsDisplay aspect ratio : 16:9Frame rate mode : ConstantFrame rate : 25.000 FPSStandard : PALColor space : YUVChroma subsampling : 4:2:0Bit depth : 8 bitsScan type : InterlacedScan order : Top Field FirstCompression mode : LossyBits/(Pixel*Frame) : 0.297Time code of first frame : 00:00:00:00Time code source : Group of pictures headerStream size : 2.22 GiB (92%)Default : YesForced : No
AudioID : 2Format : MPEG AudioFormat version : Version 1Format profile : Layer 2Format settings : Joint stereo / Intensity Stereo + MS StereoCodec ID : A_MPEG/L2Codec ID/Hint : MP2Duration : 1 h 43 minBit rate mode : ConstantBit rate : 192 kb/sChannel(s) : 2 channelsSampling rate : 48.0 kHzCompression mode : LossyStream size : 142 MiB (6%)Language : FrenchDefault : YesForced : No
Text #1ID : 3Format : VobSubCodec ID : S_VOBSUBCodec ID/Info : Picture based subtitle format used on DVDsLanguage : RussianDefault : NoForced : No
Text #2ID : 4Format : UTF-8Codec ID : S_TEXT/UTF8Codec ID/Info : UTF-8 Plain TextLanguage : EnglishDefault : NoForced : No
Text #3ID : 5Format : UTF-8Codec ID : S_TEXT/UTF8Codec ID/Info : UTF-8 Plain TextLanguage : FrenchDefault : NoForced : No
Text #4ID : 6Format : VobSubCodec ID : S_VOBSUBCodec ID/Info : Picture based subtitle format used on DVDsLanguage : GermanDefault : NoForced : No
Text #5ID : 7Format : VobSubCodec ID : S_VOBSUBCodec ID/Info : Picture based subtitle format used on DVDsLanguage : DutchDefault : NoForced : No
Text #6ID : 8Format : VobSubCodec ID : S_VOBSUBCodec ID/Info : Picture based subtitle format used on DVDsLanguage : RomanianDefault : NoForced : No
Text #7ID : 9Format : VobSubCodec ID : S_VOBSUBCodec ID/Info : Picture based subtitle format used on DVDsLanguage : SpanishDefault : NoForced : No
-

Внимание! Раздача ведётся путём добавления новых выпусков

Внимание! Раздача ведётся путём добавления новых выпусков; при каждом добавлении создаётся новый торрент. Чтобы начать докачку нового выпуска, пользователям необходимо сделать следующее:
(1) остановить скачивание,
(2) удалить старый торрент у себя из клиента (старые серии удалять не надо),
(3) скачать новый торрент и запустить его у себя в клиенте вместо старого, при этом указать клиенту путь в старую папку куда и должно происходить скачивание новых выпусков.
Ваш клиент при этом должен произвести хеширование (проверку) старой папки (если не производит сам - помогите ему сделать это). В результате он будет докачивать только те выпуски, которых у Вас ещё нет. Старые выпуски при этом не удаляются, а продолжают раздаваться!
Eсли Вы уже удалили старые выпуски, то предотвратить их повторную закачку можно, сняв галочки в соответствующих местах при запуске нового торрента. По возможности, желательно не удалять старые выпуски как можно дольше, чтобы релизёр не только продолжал раздавать старые выпуски, но и смог сконцентрироваться на новых.
- [4'341]


[torrentc.info]_t_5623210.torrent
Торрент: Зарегистрирован ·  [ 2018-10-14 12:52 ] ·  7643101e992dabe9da5982eece9e1775e7c4eef0

4 KB

Статус: проверено
Скачан: 0 раз
Размер: 2.41 GB
Оценка: 
(Голосов: 0)
Сказали спасибо: 0  Спасибо
Похожие темы
[Профиль]    [ЛС]
Показать сообщения:    
Ответить на тему

Текущее время: Сегодня 22:44

Часовой пояс: GMT + 7



Вы не можете начинать темы
Вы не можете отвечать на сообщения
Вы не можете редактировать свои сообщения
Вы не можете удалять свои сообщения
Вы не можете голосовать в опросах
Вы не можете прикреплять файлы к сообщениям
Вы можете скачивать файлы