22 июля / 22 July (Пол Гринграсс / Paul Greengrass) [2018, Норвегия, триллер, драма, криминал, биография, WEB-DLRip] Dub (Невафильм) + Sub (Rus, Eng) + Original Eng

Ответить на тему
 
Автор Сообщение

torrentc.info

Создавать темы 12-Окт-2018 10:46

[Цитировать]

22 июля / 22 July
Год выхода: 2018
Страна: Норвегия, Исландия, США
Жанр: триллер, драма, криминал, биография
Продолжительность: 02:24:00-Перевод: Профессиональный (полное дублирование) | Невафильм
Субтитры: русские, английские
Оригинальная аудиодорожка: английский-Режиссер: Пол Гринграсс / Paul Greengrass-В ролях: Торбьорн Харр, Андерс Даниелсен Лье, Йон Ёигарден, Jonas Strand Gravli, Ларс Аренц-Хансен, Йоаким Скарли, Ёйстейн Мартинсен, Аннеке фон Дер Липпе, Миккель Братт Сильсет-О фильме: 22 июля 2011 года — день, в который был совершен самый кровавый, беспощадный и многочисленный по числу жертв теракт в истории Норвегии. Террорист — Андерс Брейвик взорвал бомбу в Осло и расстрелял 77 молодых людей в лагере на острове Утейя. Хронология тех страшных событий представлена с трех сторон — глазами пострадавших от нападения, политиков, оказавшихся беспомощными в экстремальной ситуации и юристов, которые вели дело Брейвика в суде.--Качество: WEB-DLRip
Формат файла: AVI
Видео: 720x384 (1.88:1), 24.000 fps, XviD build 50 ~1393 kbps avg, 0.21 bit/pixel
Аудио: 48 kHz, AC3 Dolby Digital, 3/2 (L,C,R,l,r) + LFE ch, ~384 kbps | RUS
Аудио: 48 kHz, AC3 Dolby Digital, 3/2 (L,C,R,l,r) + LFE ch, ~384 kbps | ENG
Сэмпл-

MediaInfo

Формат файла                                   : AVI
Формат файла/Информация                        : Audio Video Interleave
Профиль формата                          : OpenDML
Размер файла                             : 2,18 Гбайт
Продолжительность                        : 2 ч. 24 м.
Общий поток                              : 2169 Кбит/сек
Программа кодирования                    : VirtualDubMod 1.5.10.3 | www.virtualdub-fr.org || (build 2550/release)
Библиотека кодирования                   : VirtualDubMod build 2550/release
Видео
Идентификатор                            : 0
Формат файла                                   : MPEG-4 Visual
Профиль формата                          : Advanced Simple@L5
Настройки формата                        : BVOP1 / Custom Matrix
Параметр BVOP формата                    : 1
Параметр QPel формата                    : Нет
Параметр GMC формата                     : Без точки перехода
Параметр матрицы формата                 : Выборочная
Идентификатор кодека                     : XVID
Идентификатор кодека/Подсказка           : XviD
Продолжительность                        : 2 ч. 24 м.
Битрейт                                  : 1383 Кбит/сек
Ширина                                   : 720 пикселей
Высота                                   : 384 пикселя
Соотношение сторон                       : 1,85:1
Частота кадров                           : 24,000 кадра/сек
Цветовое пространство                    : YUV
Субдискретизация насыщенности            : 4:2:0
Битовая глубина                          : 8 бит
Тип развёртки                            : Прогрессивная
Метод сжатия                             : С потерями
Бит/(Пиксели*Кадры)                      : 0.208
Размер потока                            : 1,39 Гбайт (64%)
Библиотека кодирования                   : XviD 1.2.1 (UTC 2008-12-04)
Аудио #1
Идентификатор                            : 1
Формат файла                                   : AC-3
Формат файла/Информация                        : Audio Coding 3
Коммерческое название                    : Dolby Digital
Идентификатор кодека                     : 2000
Продолжительность                        : 2 ч. 24 м.
Вид битрейта                             : Постоянный
Битрейт                                  : 384 Кбит/сек
Каналы                                   : 6 каналов
Channel layout                           : L R C LFE Ls Rs
Частота                                  : 48,0 КГц
Частота кадров                           : 31,250 кадров/сек (1536 SPF)
Битовая глубина                          : 16 бит
Метод сжатия                             : С потерями
Размер потока                            : 396 Мбайт (18%)
Выравнивание                             : Разделение по промежуткам
Продолжительность промежутка             : 42  мс. (1,00 видеокадр)
Время предзагрузки промежутка            : 500  мс.
ServiceKind/String                       : Complete Main
Аудио #2
Идентификатор                            : 2
Формат файла                                   : AC-3
Формат файла/Информация                        : Audio Coding 3
Коммерческое название                    : Dolby Digital
Идентификатор кодека                     : 2000
Продолжительность                        : 2 ч. 24 м.
Вид битрейта                             : Постоянный
Битрейт                                  : 384 Кбит/сек
Каналы                                   : 6 каналов
Channel layout                           : L R C LFE Ls Rs
Частота                                  : 48,0 КГц
Частота кадров                           : 31,250 кадров/сек (1536 SPF)
Битовая глубина                          : 16 бит
Метод сжатия                             : С потерями
Размер потока                            : 396 Мбайт (18%)
Выравнивание                             : Разделение по промежуткам
Продолжительность промежутка             : 42  мс. (1,00 видеокадр)
Время предзагрузки промежутка            : 500  мс.
ServiceKind/String                       : Complete Main
[Профиль]    [ЛС]
Показать сообщения:    
Ответить на тему

Текущее время: Сегодня 16:27

Часовой пояс: GMT + 7



Вы не можете начинать темы
Вы не можете отвечать на сообщения
Вы не можете редактировать свои сообщения
Вы не можете удалять свои сообщения
Вы не можете голосовать в опросах
Вы не можете прикреплять файлы к сообщениям
Вы не можете скачивать файлы