Тёмные отражения / The Darkest Minds (Дженнифер Ю / Jennifer Yuh Nelson) [2018, США, фантастика, триллер, WEB-DLRip] Dub (iTunes)

Ответить на тему
 
Автор Сообщение

torrentc.info

Создавать темы 12-Окт-2018 10:46

[Цитировать]

Тёмные отражения / The Darkest Minds
«Если ты один из нас, ты сможешь найти нас»
-[img=right]https://i1.imageban.ru/out/2018/10/11/3d5d8e5edfb4d...1bf77a.png[/img]
Год выхода: 2018
Выпущено: США / 21 Laps Entertainment
Жанр: фантастика, триллер
Продолжительность: 01:44:34
Перевод: Профессиональный (полное дублирование)
Субтитры: Русские (форсированные) (внешние *.srt)-Режиссер:
Дженнифер Ю / Jennifer Yuh Nelson-В ролях:
Брэдли Уитфорд, Мэнди Мур, Амандла Стенберг, Гвендолин Кристи, Харрис Дикинсон, Марк О'Брайэн, Уоллес Лэнгэм, Патрик Гибсон, Уэйд Уильямс, Голден Брукс, Мия Чех, Скайлан Брукс-О фильме:
После того, как неизвестная болезнь убивает 98% американских детей, 2% выживших, у которых обнаруживаются суперспособности, отправляют в специальные лагеря. 16-летняя девушка сбегает из такого лагеря и присоединяется к группе других подростков, которые скрываются от правительства.-
| | IMDB | КиноПоиск | Сэмпл |-Качество: WEB-DLRip [The.Darkest.Minds.2018.1080p.WEB-DL.DD5.1.H264-FGT]
Формат файла: AVI
Видео: 720x304 (2.37:1), 23.976 fps, XviD build 67 ~1590 kbps avg, 0.30 bit/pixel
Аудио: 48 kHz, AC3 Dolby Digital, 3/2 (L,C,R,l,r) + LFE ch, ~384 kbps avg - iTunes Russia-
[img]https://i5.imageban.ru/thumbs/2018.10.11/a25d3676ff1fa1c21393ea29e10fcf7c.jpg[/img]-[img]https://i4.imageban.ru/thumbs/2018.10.11/71732a9a574e4e2804b5099425047601.jpg[/img][img]https://i2.imageban.ru/thumbs/2018.10.11/3341b8096efad10d207637b4feb5154f.jpg[/img][img]https://i3.imageban.ru/thumbs/2018.10.11/e05c5eb778b47cfec3b52c3474982002.jpg[/img][img]https://i3.imageban.ru/thumbs/2018.10.11/a76291ecb4e8df34931b2b88f4a6b1d8.jpg[/img]MediaInfo">

Скриншоты[img]https://i5.imageban.ru/thumbs/2018.10.11/a25d3676ff1fa1c21393ea29e10fcf7c.jpg[/img]-[img]https://i4.imageban.ru/thumbs/2018.10.11/71732a9a574e4e2804b5099425047601.jpg[/img][img]https://i2.imageban.ru/thumbs/2018.10.11/3341b8096efad10d207637b4feb5154f.jpg[/img][img]https://i3.imageban.ru/thumbs/2018.10.11/e05c5eb778b47cfec3b52c3474982002.jpg[/img][img]https://i3.imageban.ru/thumbs/2018.10.11/a76291ecb4e8df34931b2b88f4a6b1d8.jpg[/img]MediaInfo

Полное имя                               : D:\Temnye_otrazheniya_2018_WEB-DLRip_iT_by_Dalemake.avi
Формат файла                                   : AVI
Формат файла/Информация                        : Audio Video Interleave
Размер файла                             : 1,45 Гбайт
Продолжительность                        : 1 ч. 44 м.
Общий поток                              : 1981 Кбит/сек
Программа кодирования                    : VirtualDubMod 1.5.10.3 | www.virtualdub-fr.org || (build 2550/release)
Библиотека кодирования                   : VirtualDubMod build 2550/release
Видео
Идентификатор                            : 0
Формат файла                                   : MPEG-4 Visual
Профиль формата                          : Advanced Simple@L5
Параметр BVOP формата                    : 1
Параметр QPel формата                    : Нет
Параметр GMC формата                     : Без точки перехода
Параметр матрицы формата                 : Выборочная
Идентификатор кодека                     : XVID
Идентификатор кодека/Подсказка           : XviD
Продолжительность                        : 1 ч. 44 м.
Битрейт                                  : 1591 Кбит/сек
Ширина                                   : 720 пикселей
Высота                                   : 304 пикселя
Соотношение сторон                       : 2,35:1
Частота кадров                           : 23,976 кадра/сек
Цветовое пространство                    : YUV
Субдискретизация насыщенности            : 4:2:0
Битовая глубина                          : 8 бит
Тип развёртки                            : Прогрессивная
Метод сжатия                             : С потерями
Бит/(Пиксели*Кадры)                      : 0.303
Размер потока                            : 1,16 Гбайт (80%)
Библиотека кодирования                   : XviD 67
Аудио
Идентификатор                            : 1
Формат файла                                   : AC-3
Формат файла/Информация                        : Audio Coding 3
Расширение режима                        : CM (complete main)
Параметр Endianness формата              : Big
Идентификатор кодека                     : 2000
Продолжительность                        : 1 ч. 43 м.
Вид битрейта                             : Постоянный
Битрейт                                  : 384 Кбит/сек
Каналы                                   : 6 каналов
Расположение каналов                     : Front: L C R, Side: L R, LFE
Частота                                  : 48,0 КГц
Битовая глубина                          : 16 бит
Метод сжатия                             : С потерями
Размер потока                            : 285 Мбайт (19%)
Выравнивание                             : Разделение по промежуткам
Продолжительность промежутка             : 42  мс. (1,01 видеокадр)
Время предзагрузки промежутка            : 500  мс.
-
[Профиль]    [ЛС]
Показать сообщения:    
Ответить на тему

Текущее время: Сегодня 16:40

Часовой пояс: GMT + 7



Вы не можете начинать темы
Вы не можете отвечать на сообщения
Вы не можете редактировать свои сообщения
Вы не можете удалять свои сообщения
Вы не можете голосовать в опросах
Вы не можете прикреплять файлы к сообщениям
Вы не можете скачивать файлы