Питбуль. Последний пес / Pitbull. Ostatni pies / Pitbull: Last Dog (Владислав Пасиковски / Wladyslaw Pasikowski) [2018, Польша, боевик, драма, криминал, HDRip] VO (М. Чадов)

Ответить на тему
 
Автор Сообщение

torrentc.info

Создавать темы 12-Окт-2018 01:24

[Цитировать]

Питбуль. Последний пес / Pitbull. Ostatni pies / Pitbull: Last Dog
[img=right]https://i1.imageban.ru/out/2018/10/10/0ce417296a56a...ac7fe7.jpg[/img]
Страна: Польша
Жанр: боевик, драма, криминал
Год выхода: 2018
Продолжительность: 02:03:56-Перевод: Одноголосый закадровый - М. Чадов (цензурный)
Субтитры: нет
Оригинальная аудиодорожка: нет-Режиссер: Владислав Пасиковски / Wladyslaw Pasikowski-В ролях: Марчин Дорочиньский, Кшиштоф Строиньский, Дорота Рабчевска, Рафаль Мор, Цезарь Пазура, Адам Воронович, Мариан Дзендзель, Агнешка Кавиорска, Мирослява Малюдзинская, Изабела Куна-Описание: Преступные банды Варшавы соперничают между собой за власть над территорией. Длительная борьба между группировками из Воломина и Прушкова прерывается неожиданным появлением третьего участника. В это время неизвестные бандиты жестоко убивают полицейского Сочека. Чтобы найти убийц, коменданту приходится вызвать в столицу самых опытных полицейских, которые теперь работают в провинциальных городах страны. Так, вскоре в Варшаву прибывают настоящие профессионалы Десперо и Метыль, а также из Вашингтона прилетает Квантико. Теперь троице приходится погрузиться в криминальный мир и сделать всё возможное, чтобы противостоять разгулявшейся преступности.-Качество видео: HDRip
Формат файла: AVI
Видео: 720x304 (2.37:1), 24.000 fps, XviD build 73 ~1483 kbps avg, 0.28 bit/pixel
Аудио: 48 kHz, AC3 Dolby Digital, 2/0 (L,R) ch, ~192 kbps-

Сэмпл-

MediaInfo

Формат файла                                   : AVI
Формат файла/Информация                        : Audio Video Interleave
Размер файла                             : 1,46 Гбайт
Продолжительность                        : 2 ч. 3 м.
Общий поток                              : 1685 Кбит/сек
Программа кодирования                    : VirtualDubMod 1.5.10.3 | www.virtualdub-fr.org || (build 2550/release)
Библиотека кодирования                   : VirtualDubMod build 2550/release
Видео
Идентификатор                            : 0
Формат файла                                   : MPEG-4 Visual
Профиль формата                          : Advanced Simple@L5
Настройки формата                        : BVOP1 / Custom Matrix
Параметр BVOP формата                    : 1
Параметр QPel формата                    : Нет
Параметр GMC формата                     : Без точки перехода
Параметр матрицы формата                 : Выборочная
Идентификатор кодека                     : XVID
Идентификатор кодека/Подсказка           : XviD
Продолжительность                        : 2 ч. 3 м.
Битрейт                                  : 1484 Кбит/сек
Ширина                                   : 720 пикселей
Высота                                   : 304 пикселя
Соотношение сторон                       : 2,35:1
Частота кадров                           : 24,000 кадра/сек
Цветовое пространство                    : YUV
Субдискретизация насыщенности            : 4:2:0
Битовая глубина                          : 8 бит
Тип развёртки                            : Прогрессивная
Метод сжатия                             : С потерями
Бит/(Пиксели*Кадры)                      : 0.282
Размер потока                            : 1,28 Гбайт (88%)
Библиотека кодирования                   : XviD 73
Аудио
Идентификатор                            : 1
Формат файла                                   : AC-3
Формат файла/Информация                        : Audio Coding 3
Коммерческое название                    : Dolby Digital
Идентификатор кодека                     : 2000
Продолжительность                        : 2 ч. 3 м.
Вид битрейта                             : Постоянный
Битрейт                                  : 192 Кбит/сек
Каналы                                   : 2 канала
Channel layout                           : L R
Частота                                  : 48,0 КГц
Частота кадров                           : 31,250 кадров/сек (1536 SPF)
Битовая глубина                          : 16 бит
Метод сжатия                             : С потерями
Размер потока                            : 170 Мбайт (11%)
Выравнивание                             : Разделение по промежуткам
Продолжительность промежутка             : 42  мс. (1,00 видеокадр)
Время предзагрузки промежутка            : 500  мс.
ServiceKind/String                       : Complete Main
[Профиль]    [ЛС]
Показать сообщения:    
Ответить на тему

Текущее время: Сегодня 00:08

Часовой пояс: GMT + 7



Вы не можете начинать темы
Вы не можете отвечать на сообщения
Вы не можете редактировать свои сообщения
Вы не можете удалять свои сообщения
Вы не можете голосовать в опросах
Вы не можете прикреплять файлы к сообщениям
Вы не можете скачивать файлы