Пассажир / The Commuter (Жаума Кольет-Серра / Jaume Collet-Serra) [2018, Франция, США, боевик, триллер, драма, криминал, детектив, HDRip] Dub

Ответить на тему
 
Автор Сообщение

torrentc.info

Создавать темы 12-Окт-2018 00:06

[Цитировать]

Пассажир / The Commuter- Год выхода: 2018
Страна: Франция, США / StudioCanal, Ombra Films
Жанр: боевик, триллер, драма, криминал, детектив
Продолжительность: 01:44:55
Перевод: Профессиональный (дублированный)
Субтитры: нет-Режиссер: Жаума Кольет-Серра / Jaume Collet-Serra-В ролях: Лиам Нисон, Вера Фармига, Сэм Нил, Патрик Уилсон, Джонатан Бэнкс, Элизабет МакГоверн, Шазад Латиф, Флоренс Пью, Летишиа Райт, Киллиан Скотт.-Описание: Еще вчера его день начинался с поездки на работу в одном и том же поезде, в компании уже давно знакомых лиц, но сегодня таинственная незнакомка предлагает ему поучаствовать в эксперименте. Одна остановка, чтобы принять решение, и единственный шанс из тысячи победить. Осторожно, игра начинается...-Рейтинг
kinopoisk.ru 6.552 (24 712)
imdb.com 6.30 (63 300)
-Качество видео: HDRip
Формат файла: AVI | Sample
Видео: 688x288 (2.40:1), 23.976 fps, XviD build 73 ~858 kbps avg, 0.18 bit/pixel
Аудио: 48 kHz, MPEG Layer 3, 2 ch, ~128.00 kbps avg | RUS

Инфо

Формат файла : AVI
Формат файла/Информация : Audio Video Interleave
Размер файла : 747 Мбайт
Продолжительность : 1 ч. 44 м.
Общий поток : 995 Кбит/сек
Программа кодирования : VirtualDubMod 1.5.10.2 (build 2540/release)
Библиотека кодирования : VirtualDubMod build 2540/release
Видео
Идентификатор : 0
Формат файла : MPEG-4 Visual
Профиль формата : Advanced Simple@L5
Настройки формата : BVOP1 / Custom Matrix
Параметр BVOP формата : 1
Параметр QPel формата : Нет
Параметр GMC формата : Без точки перехода
Параметр матрицы формата : Выборочная
Идентификатор кодека : XVID
Идентификатор кодека/Подсказка : XviD
Продолжительность : 1 ч. 44 м.
Битрейт : 857 Кбит/сек
Ширина : 688 пикселей
Высота : 288 пикселей
Соотношение сторон : 2,40:1
Частота кадров : 23,976 (24000/1001) кадра/сек
Цветовое пространство : YUV
Субдискретизация насыщенности : 4:2:0
Битовая глубина : 8 бит
Тип развёртки : Прогрессивная
Метод сжатия : С потерями
Бит/(Пиксели*Кадры) : 0.180
Размер потока : 644 Мбайт (86%)
Библиотека кодирования : XviD 73
Аудио
Идентификатор : 1
Формат файла : MPEG Audio
Версия формата : Version 1
Профиль формата : Layer 3
Идентификатор кодека : 55
Идентификатор кодека/Подсказка : MP3
Продолжительность : 1 ч. 44 м.
Вид битрейта : Постоянный
Битрейт : 128 Кбит/сек
Каналы : 2 канала
Частота : 48,0 КГц
Частота кадров : 41,667 кадра/сек (1152 SPF)
Метод сжатия : С потерями
Размер потока : 96,1 Мбайт (13%)
Выравнивание : Соединение по промежуткам
Продолжительность промежутка : 42 мс. (1,00 видеокадр)
Время предзагрузки промежутка : 504 мс.
Библиотека кодирования : LAME3.99r
Настройки программы : -m s -V 4 -q 2 -lowpass 17 -b 128

Скриншоты

[Профиль]    [ЛС]
Показать сообщения:    
Ответить на тему

Текущее время: Сегодня 16:21

Часовой пояс: GMT + 7



Вы не можете начинать темы
Вы не можете отвечать на сообщения
Вы не можете редактировать свои сообщения
Вы не можете удалять свои сообщения
Вы не можете голосовать в опросах
Вы не можете прикреплять файлы к сообщениям
Вы не можете скачивать файлы