22 июля / 22 July (Пол Гринграсс / Paul Greengrass) [2018, Норвегия, триллер, драма, криминал, биография, WEB-DLRip] Dub (Невафильм)

Ответить на тему
 
Автор Сообщение

torrentc.info

Создавать темы 11-Окт-2018 23:03

[Цитировать]

22 июля / 22 July-[img=right]https://i1.imageban.ru/out/2018/10/11/36fe5a2811ef8...6df34e.png[/img]
Год выхода: 2018
Страна: Норвегия, Исландия, США
Жанр: триллер, драма, криминал, биография
Продолжительность: 02:24:00
Перевод: Профессиональный (полное дублирование) Невафильм
Субтитры: Русские (форсированные) (внешние *.srt)-Режиссер:
Пол Гринграсс / Paul Greengrass-В ролях:
Торбьорн Харр, Андерс Даниелсен Лье, Йон Ёигарден, Jonas Strand Gravli, Ларс Аренц-Хансен, Йоаким Скарли, Ёйстейн Мартинсен, Аннеке фон Дер Липпе, Миккель Братт Сильсет-О фильме:
22 июля 2011 года — день, в который был совершен самый кровавый, беспощадный и многочисленный по числу жертв теракт в истории Норвегии. Террорист — Андерс Брейвик взорвал бомбу в Осло и расстрелял 77 молодых людей в лагере на острове Утейя. Хронология тех страшных событий представлена с трех сторон — глазами пострадавших от нападения, политиков, оказавшихся беспомощными в экстремальной ситуации и юристов, которые вели дело Брейвика в суде.-
| | IMDB | КиноПоиск | Сэмпл |-Качество: WEB-DLRip [22.July.2018.1080p.WEB-DL.Rus.Eng.EniaHD]
Формат файла: AVI
Видео: 704x384 (1.83:1), 24.000 fps, XviD build 67 ~1251 kbps avg, 0.19 bit/pixel
Аудио: 48 kHz, AC3 Dolby Digital, 2/0 (L,R) ch, ~192 kbps avg-
[img]https://i6.imageban.ru/thumbs/2018.10.11/e0d748d3a47ad39c964f969745610c4a.jpg[/img]-[img]https://i1.imageban.ru/thumbs/2018.10.11/345e1307148ac09c0cf1948baaa2dd67.jpg[/img][img]https://i3.imageban.ru/thumbs/2018.10.11/64b4cc100d4ac8c6b55daf307d7dfc17.jpg[/img][img]https://i3.imageban.ru/thumbs/2018.10.11/1520177889cc903f6ccf61772c181ab2.jpg[/img][img]https://i2.imageban.ru/thumbs/2018.10.11/4c57771fcf2584cf66ac1408a596f685.jpg[/img]MediaInfo">

Скриншоты[img]https://i6.imageban.ru/thumbs/2018.10.11/e0d748d3a47ad39c964f969745610c4a.jpg[/img]-[img]https://i1.imageban.ru/thumbs/2018.10.11/345e1307148ac09c0cf1948baaa2dd67.jpg[/img][img]https://i3.imageban.ru/thumbs/2018.10.11/64b4cc100d4ac8c6b55daf307d7dfc17.jpg[/img][img]https://i3.imageban.ru/thumbs/2018.10.11/1520177889cc903f6ccf61772c181ab2.jpg[/img][img]https://i2.imageban.ru/thumbs/2018.10.11/4c57771fcf2584cf66ac1408a596f685.jpg[/img]MediaInfo

Общее
Полное имя                               : D:\22_July_2018_WEB-DLRip_by_Dalemake.avi
Формат файла                                   : AVI
Формат файла/Информация                        : Audio Video Interleave
Размер файла                             : 1,46 Гбайт
Продолжительность                        : 2 ч. 24 м.
Общий поток                              : 1452 Кбит/сек
Программа кодирования                    : VirtualDubMod 1.5.10.3 | www.virtualdub-fr.org || (build 2550/release)
Библиотека кодирования                   : VirtualDubMod build 2550/release
Видео
Идентификатор                            : 0
Формат файла                                   : MPEG-4 Visual
Профиль формата                          : Advanced Simple@L5
Параметр BVOP формата                    : 1
Параметр QPel формата                    : Нет
Параметр GMC формата                     : Без точки перехода
Параметр матрицы формата                 : Выборочная
Идентификатор кодека                     : XVID
Идентификатор кодека/Подсказка           : XviD
Продолжительность                        : 2 ч. 24 м.
Битрейт                                  : 1251 Кбит/сек
Ширина                                   : 704 пикселя
Высота                                   : 384 пикселя
Соотношение сторон                       : 1,85:1
Частота кадров                           : 24,000 кадра/сек
Цветовое пространство                    : YUV
Субдискретизация насыщенности            : 4:2:0
Битовая глубина                          : 8 бит
Тип развёртки                            : Прогрессивная
Метод сжатия                             : С потерями
Бит/(Пиксели*Кадры)                      : 0.193
Размер потока                            : 1,26 Гбайт (86%)
Библиотека кодирования                   : XviD 67
Аудио
Идентификатор                            : 1
Формат файла                                   : AC-3
Формат файла/Информация                        : Audio Coding 3
Расширение режима                        : CM (complete main)
Параметр Endianness формата              : Big
Идентификатор кодека                     : 2000
Продолжительность                        : 2 ч. 24 м.
Вид битрейта                             : Постоянный
Битрейт                                  : 192 Кбит/сек
Каналы                                   : 2 канала
Расположение каналов                     : Front: L R
Частота                                  : 48,0 КГц
Битовая глубина                          : 16 бит
Метод сжатия                             : С потерями
Размер потока                            : 198 Мбайт (13%)
Выравнивание                             : Разделение по промежуткам
Продолжительность промежутка             : 42  мс. (1,00 видеокадр)
Время предзагрузки промежутка            : 500  мс.
-
[Профиль]    [ЛС]
Показать сообщения:    
Ответить на тему

Текущее время: Сегодня 04:26

Часовой пояс: GMT + 7



Вы не можете начинать темы
Вы не можете отвечать на сообщения
Вы не можете редактировать свои сообщения
Вы не можете удалять свои сообщения
Вы не можете голосовать в опросах
Вы не можете прикреплять файлы к сообщениям
Вы не можете скачивать файлы