Mamma Mia! 2 / Mamma Mia! Here We Go Again (Ол Паркер / Ol Parker) [2018, США, мюзикл, мелодрама, комедия, WEB-DLRip] Dub (iTunes)

Ответить на тему
 
Автор Сообщение

torrentc.info

Создавать темы 11-Окт-2018 23:03

[Цитировать]

Mamma Mia! 2 / Mamma Mia! Here We Go Again
«Мы покажем вам жаркое лето»
-[img=right]https://i3.imageban.ru/out/2018/10/11/cdc72b3ac34ef...73aca3.png[/img]
Год выхода: 2018
Выпущено: Великобритания, США / Legendary Pictures
Жанр: мюзикл, мелодрама, комедия
Продолжительность: 01:53:39
Перевод: Профессиональный (полное дублирование)
Субтитры: нет-Режиссер:
Ол Паркер / Ol Parker-В ролях:
Аманда Сайфред, Мэрил Стрип, Лили Джеймс, Доминик Купер, Шер, Пирс Броснан, Колин Фёрт, Энди Гарсиа, Стеллан Скарсгард, Джули Уолтерс, Джереми Ирвин, Кристин Барански, Селия Имри, Алекса Дейвис, Джессика Кинэн Винн, Хью Скиннер-О фильме:
Сбежать на райский греческий остров, чтобы гулять по улочкам очаровательного города, наслаждаться местной кухней, танцевать до утра, кататься на яхте и влюбиться без памяти — что может быть лучше? Звучит, как идеальный план на лето… да и на всю жизнь тоже.-
| | IMDB | КиноПоиск | Сэмпл |-Качество: WEB-DLRip [Mamma.Mia.Here.We.Go.Again.2018.1080p.WEB-DL.DD5.1.H264-FGT]
Формат файла: AVI
Видео: 720x304 (2.37:1), 23.976 fps, XviD build 67 ~1447 kbps avg, 0.28 bit/pixel
Аудио: 48 kHz, AC3 Dolby Digital, 3/2 (L,C,R,l,r) + LFE ch, ~384 kbps avg - iTunes Russia-
[img]https://i5.imageban.ru/thumbs/2018.10.11/89393be4b0ed9ce42ce9ef61aeb31847.jpg[/img]-[img]https://i6.imageban.ru/thumbs/2018.10.11/fcf7d7630baaf9f92c684728591d2cba.jpg[/img][img]https://i2.imageban.ru/thumbs/2018.10.11/c08d8b57cf7d5e1b1d5389b04dd70ad6.jpg[/img][img]https://i3.imageban.ru/thumbs/2018.10.11/6bc40c90e891bf94732b08ff23e2b5a9.jpg[/img][img]https://i2.imageban.ru/thumbs/2018.10.11/1fc7f466ec295afe88e77b66eae042a0.jpg[/img]MediaInfo">

Скриншоты[img]https://i5.imageban.ru/thumbs/2018.10.11/89393be4b0ed9ce42ce9ef61aeb31847.jpg[/img]-[img]https://i6.imageban.ru/thumbs/2018.10.11/fcf7d7630baaf9f92c684728591d2cba.jpg[/img][img]https://i2.imageban.ru/thumbs/2018.10.11/c08d8b57cf7d5e1b1d5389b04dd70ad6.jpg[/img][img]https://i3.imageban.ru/thumbs/2018.10.11/6bc40c90e891bf94732b08ff23e2b5a9.jpg[/img][img]https://i2.imageban.ru/thumbs/2018.10.11/1fc7f466ec295afe88e77b66eae042a0.jpg[/img]MediaInfo

Полное имя                               : D:\Mamma_Mia_2_2018_WEB-DLRip_iT_by_Dalemake.avi
Формат файла                                   : AVI
Формат файла/Информация                        : Audio Video Interleave
Размер файла                             : 1,46 Гбайт
Продолжительность                        : 1 ч. 53 м.
Общий поток                              : 1841 Кбит/сек
Программа кодирования                    : VirtualDubMod 1.5.10.3 | www.virtualdub-fr.org || (build 2550/release)
Библиотека кодирования                   : VirtualDubMod build 2550/release
Видео
Идентификатор                            : 0
Формат файла                                   : MPEG-4 Visual
Профиль формата                          : Advanced Simple@L5
Параметр BVOP формата                    : 1
Параметр QPel формата                    : Нет
Параметр GMC формата                     : Без точки перехода
Параметр матрицы формата                 : Выборочная
Идентификатор кодека                     : XVID
Идентификатор кодека/Подсказка           : XviD
Продолжительность                        : 1 ч. 53 м.
Битрейт                                  : 1447 Кбит/сек
Ширина                                   : 720 пикселей
Высота                                   : 304 пикселя
Соотношение сторон                       : 2,35:1
Частота кадров                           : 23,976 кадра/сек
Цветовое пространство                    : YUV
Субдискретизация насыщенности            : 4:2:0
Битовая глубина                          : 8 бит
Тип развёртки                            : Прогрессивная
Метод сжатия                             : С потерями
Бит/(Пиксели*Кадры)                      : 0.276
Размер потока                            : 1,15 Гбайт (79%)
Библиотека кодирования                   : XviD 67
Аудио
Идентификатор                            : 1
Формат файла                                   : AC-3
Формат файла/Информация                        : Audio Coding 3
Расширение режима                        : CM (complete main)
Параметр Endianness формата              : Big
Идентификатор кодека                     : 2000
Продолжительность                        : 1 ч. 53 м.
Вид битрейта                             : Постоянный
Битрейт                                  : 384 Кбит/сек
Каналы                                   : 6 каналов
Расположение каналов                     : Front: L C R, Side: L R, LFE
Частота                                  : 48,0 КГц
Метод сжатия                             : С потерями
Размер потока                            : 312 Мбайт (21%)
Выравнивание                             : Разделение по промежуткам
Продолжительность промежутка             : 42  мс. (1,00 видеокадр)
Время предзагрузки промежутка            : 500  мс.
-
[Профиль]    [ЛС]
Показать сообщения:    
Ответить на тему

Текущее время: Сегодня 21:37

Часовой пояс: GMT + 7



Вы не можете начинать темы
Вы не можете отвечать на сообщения
Вы не можете редактировать свои сообщения
Вы не можете удалять свои сообщения
Вы не можете голосовать в опросах
Вы не можете прикреплять файлы к сообщениям
Вы не можете скачивать файлы