10 на 10 / 10x10 (Сьюзи Юинг / Suzi Ewing) [2018, Великобритания, триллер, HDRip] MVO (HDrezka Studio)

Ответить на тему
 
Автор Сообщение

torrentc.info

Создавать темы 11-Окт-2018 10:47

[Цитировать]

10 на 10 / 10x10
Страна: Великобритания
Жанр: триллер
Год выхода: 2018
Продолжительность: 01:26:56
Перевод: Любительский (многоголосый закадровый) HDrezka Studio
Субтитры: нет
Режиссер: Сьюзи Юинг / Suzi Ewing
В ролях: Люк Эванс
Келли Райлли
Ноэль Кларк
Бенджамин Хотжес
Оливия Ченери
Джилл Винтерниц
Джейсон Мацца
Руби Бустаманте
Скай Люсия Дегруттола
Майлз Уэбб
Описание: Средь бела дня мужчина похищает женщину прямо с городской улицы. Засовывает её в багажник и везёт к себе домой, где он заранее обустроил звукоизолированную комнату размером десять на десять футов. Но он не обычный маньяк — сначала мужчина хочет кое-что разузнать у своей пленницы.
Доп. информация: https://www.kinopoisk.ru/film/1008203/
Сэмпл: http://sendfile.su/1447715
Качество видео: HDRip найден в сети
Формат файла: AVI
Видео: 688x256 (2.69:1), 23.976 fps, XviD build 73 ~1064 kbps avg, 0.25 bit/pixel
Аудио: 48 kHz, MPEG Layer 3, 2 ch, ~128.00 kbps avg

MediaInfo

GeneralComplete name : S:\10x10.2018.745MB..aviFormat : AVIFormat/Info : Audio Video InterleaveFile size : 745 MiBDuration : 1h 26mnOverall bit rate : 1 198 Kbps
VideoID : 0Format : MPEG-4 VisualFormat profile : Advanced Simple@L5Format settings, BVOP : 1Format settings, QPel : NoFormat settings, GMC : No warppointsFormat settings, Matrix : CustomCodec ID : XVIDCodec ID/Hint : XviDDuration : 1h 26mnBit rate : 1 064 KbpsWidth : 688 pixelsHeight : 256 pixelsDisplay aspect ratio : 2.688Frame rate : 23.976 fpsColor space : YUVChroma subsampling : 4:2:0Bit depth : 8 bitsScan type : ProgressiveCompression mode : LossyBits/(Pixel*Frame) : 0.252Stream size : 662 MiB (89%)Writing library : XviD 73
AudioID : 1Format : MPEG AudioFormat version : Version 1Format profile : Layer 3Codec ID : 55Codec ID/Hint : MP3Duration : 1h 26mnBit rate mode : ConstantBit rate : 128 KbpsChannel(s) : 2 channelsSampling rate : 48.0 KHzCompression mode : LossyStream size : 79.5 MiB (11%)Alignment : Aligned on interleavesInterleave, duration : 167 ms (4.00 video frames)Interleave, preload duratio : 216 msWriting library : LAME3.99rEncoding settings : -m s -V 4 -q 2 -lowpass 17 -b 128

Скриншот c названием фильма

Скриншоты

[Профиль]    [ЛС]
Показать сообщения:    
Ответить на тему

Текущее время: Сегодня 23:39

Часовой пояс: GMT + 7



Вы не можете начинать темы
Вы не можете отвечать на сообщения
Вы не можете редактировать свои сообщения
Вы не можете удалять свои сообщения
Вы не можете голосовать в опросах
Вы не можете прикреплять файлы к сообщениям
Вы не можете скачивать файлы