Не волнуйся, он далеко не уйдёт / Don\'t Worry, He Won\'t Get Far on Foot (Гас Ван Сент / Gus Van Sant) [2018, США, Франция, драма, комедия, биография, BDRip-AVC] MVO (HDRezka Studio)

Ответить на тему
 
Автор Сообщение

torrentc.info

Создавать темы 10-Окт-2018 23:38

[Цитировать]

-Не волнуйся, он далеко не уйдёт / Don't Worry, He Won't Get Far on Foot-- -Страна: США, Франция
Жанр: драма, комедия, биография
Год выхода: 2018
Продолжительность: 01:54:19-Перевод: Любительский (многоголосый закадровый) HDRezka Studio
Субтитры: нет
Оригинальная аудиодорожка: нет-Режиссер: Гас Ван Сент / Gus Van Sant-В ролях: Хоакин Феникс, Джона Хилл, Руни Мара, Джек Блэк, Тони Гринхэнд, Бет Дитто, Марк Веббер, Ronnie Adrian, Ким Гордон, Удо Кир-Описание: Джон не умел вовремя останавливаться, когда дело касалось быстрой езды, красивых женщин и опасных шуток. Прихватив случайного приятеля на вечеринке, он садится в машину и чудом остаётся в живых. С этого момента начинается горькая и вдохновляющая, правдивая и трогательная история человека, который потерял все, и вынужден двигаться дальше, чтобы обрести себя как одного из самых талантливых художников-карикатуристов Америки.-[img]https://rating.kinopoisk.ru/1008748.gif[/img]- -Качество видео: BDRip-AVC / Dont.Worry.He.Wont.Get.Far.On.Foot.2018.1080p.BluRay.REMUX.AVC.DTS-HD.MA.5.1-FGT
Формат файла: MKV-Видео: MPEG-4 AVC, 896x504 (16:9), 23.976 fps, ~1467 kbps avg, 0.135 bit/pixel
Аудио: 48 kHz, AC3 Dolby Digital, 2/0 (L,R) ch, ~192 kbps avg-

MediaInfo

Complete name               : D:\Раздача\Не волнуйся, он далеко не уйдёт (2018) BDRop-AVC_ivanes20031987.mkv
Format                      : Matroska
Format version              : Version 2
File size                   : 1.35 GiB
Duration                    : 1 h 54 min
Overall bit rate            : 1 693 kb/s
Movie name                  : Не волнуйся, он далеко не уйдёт (2018) BDRop-AVC_ivanes20031987
Encoded date                : UTC 2018-10-09 17:09:40
Writing application         : mkvmerge v4.4.0 ('Die Wiederkehr') сборка от Jan  3 2011 21:40:45
Writing library             : libebml v1.0.0 + libmatroska v1.0.0
Cover                       : Yes
Attachments                 : cover.png
Video
ID                          : 1
Format                      : AVC
Format/Info                 : Advanced Video Codec
Format profile              : High@L4.1
Format settings, CABAC      : Yes
Format settings, RefFrames  : 11 frames
Codec ID                    : V_MPEG4/ISO/AVC
Duration                    : 1 h 54 min
Bit rate                    : 1 467 kb/s
Width                       : 896 pixels
Height                      : 504 pixels
Display aspect ratio        : 16:9
Frame rate mode             : Constant
Frame rate                  : 23.976 (24000/1001) FPS
Color space                 : YUV
Chroma subsampling          : 4:2:0
Bit depth                   : 8 bits
Scan type                   : Progressive
Bits/(Pixel*Frame)          : 0.135
Stream size                 : 1.17 GiB (87%)
Title                       : Rip by ivanes20031987
Writing library             : x264 core 157 r2935 545de2f
Encoding settings           : cabac=1 / ref=11 / deblock=1:-3:-3 / analyse=0x3:0x113 / me=umh / subme=10 / psy=1 / psy_rd=1.00:0.00 / mixed_ref=1 / me_range=32 / chroma_me=1 / trellis=2 / 8x8dct=1 / cqm=0 / deadzone=21,11 / fast_pskip=0 / chroma_qp_offset=-2 / threads=12 / lookahead_threads=3 / sliced_threads=0 / nr=0 / decimate=1 / interlaced=0 / bluray_compat=0 / constrained_intra=0 / bframes=11 / b_pyramid=2 / b_adapt=2 / b_bias=0 / direct=1 / weightb=1 / open_gop=0 / weightp=2 / keyint=240 / keyint_min=23 / scenecut=40 / intra_refresh=0 / rc_lookahead=60 / rc=crf / mbtree=0 / crf=18.6 / qcomp=0.60 / qpmin=0 / qpmax=69 / qpstep=4 / vbv_maxrate=50000 / vbv_bufsize=62500 / crf_max=0.0 / nal_hrd=none / filler=0 / ip_ratio=1.40 / pb_ratio=1.30 / aq=1:1.00
Default                     : Yes
Forced                      : No
Audio
ID                          : 2
Format                      : AC-3
Format/Info                 : Audio Coding 3
Format settings, Endianness : Big
Codec ID                    : A_AC3
Duration                    : 1 h 54 min
Bit rate mode               : Constant
Bit rate                    : 192 kb/s
Channel(s)                  : 2 channels
Channel positions           : Front: L R
Sampling rate               : 48.0 kHz
Frame rate                  : 31.250 FPS (1536 SPF)
Bit depth                   : 16 bits
Compression mode            : Lossy
Stream size                 : 157 MiB (11%)
Title                       : HDRezka Studio
Language                    : Russian
Service kind                : Complete Main
Default                     : Yes
Forced                      : No

Скриншоты


-
Сообщения из этой темы [11 шт.] были выделены в отдельную тему Оффтоп из: Не волнуйся, он далеко не уйдёт / Don't Worry, He Won't Get Far on Foot (Гас Ван Сент / Gus Van Sant) [2018, США, Франция, драма, комедия, биография, [5626157]
[url=profile.php?mode=viewprofile&u=8679101]порошков[/url]
[Профиль]    [ЛС]
Показать сообщения:    
Ответить на тему

Текущее время: Сегодня 17:13

Часовой пояс: GMT + 7



Вы не можете начинать темы
Вы не можете отвечать на сообщения
Вы не можете редактировать свои сообщения
Вы не можете удалять свои сообщения
Вы не можете голосовать в опросах
Вы не можете прикреплять файлы к сообщениям
Вы не можете скачивать файлы