Русалочка / The Little Mermaid (Блейк Дж. Харрис / Blake J. Harris, Крис Бушар / Chris Bouchard) [2018, США, фэнтези, драма, мелодрама, приключения, WEB-DLRip] MVO (HDrezka Studio)

Ответить на тему
 
Автор Сообщение

torrentc.info

Создавать темы 10-Окт-2018 00:39

[Цитировать]

Русалочка / The Little Mermaid
[img=right]https://i3.imageban.ru/out/2018/10/08/205b8f3830cb4...56473f.jpg[/img]
Страна: США
Жанр: фэнтези, драма, мелодрама, приключения
Год выхода: 2018
Продолжительность: 01:25:16-Перевод: Любительский (многоголосый закадровый) | HDrezka Studio
Субтитры: нет
Оригинальная аудиодорожка: нет-Режиссер: Блейк Дж. Харрис / Blake J. Harris, Крис Бушар / Chris Bouchard-В ролях: Джина Гершон, Уильям Моусли, Джаред Сэндлер, Поппи Дрейтон, Ширли МакЛейн, Лекси Колкер, Лорето Пералта, Джо Мари Пэйтон, Шэнна Коллинз, Хантер Гомез-Описание: История начинается с пожилой дамы, рассказывающей сказки своим маленьким внучкам. Несмотря на свой юный возраст, девочки отказываются верить, что такое могло приключиться в действительности. Тогда их бабушка обращается к истории Русалочки, частью которой была она сама.-Качество видео: WEB-DLRip
Формат файла: AVI
Видео: 720x320 (2.25:1), 23.976 fps, XviD build 73 ~2242 kbps avg, 0.41 bit/pixel
Аудио: 48 kHz, AC3 Dolby Digital, 2/0 (L,R) ch, ~192 kbps-

Сэмпл-

MediaInfo

Формат файла                                   : AVI
Формат файла/Информация                        : Audio Video Interleave
Размер файла                             : 1,46 Гбайт
Продолжительность                        : 1 ч. 25 м.
Общий поток                              : 2444 Кбит/сек
Программа кодирования                    : VirtualDubMod 1.5.10.3 | www.virtualdub-fr.org || (build 2550/release)
Библиотека кодирования                   : VirtualDubMod build 2550/release
Видео
Идентификатор                            : 0
Формат файла                                   : MPEG-4 Visual
Профиль формата                          : Advanced Simple@L5
Настройки формата                        : BVOP1 / Custom Matrix
Параметр BVOP формата                    : 1
Параметр QPel формата                    : Нет
Параметр GMC формата                     : Без точки перехода
Параметр матрицы формата                 : Выборочная
Идентификатор кодека                     : XVID
Идентификатор кодека/Подсказка           : XviD
Продолжительность                        : 1 ч. 25 м.
Битрейт                                  : 2243 Кбит/сек
Ширина                                   : 720 пикселей
Высота                                   : 320 пикселей
Соотношение сторон                       : 2,25:1
Частота кадров                           : 23,976 (24000/1001) кадра/сек
Цветовое пространство                    : YUV
Субдискретизация насыщенности            : 4:2:0
Битовая глубина                          : 8 бит
Тип развёртки                            : Прогрессивная
Метод сжатия                             : С потерями
Бит/(Пиксели*Кадры)                      : 0.406
Размер потока                            : 1,34 Гбайт (92%)
Библиотека кодирования                   : XviD 73
Аудио
Идентификатор                            : 1
Формат файла                                   : AC-3
Формат файла/Информация                        : Audio Coding 3
Коммерческое название                    : Dolby Digital
Идентификатор кодека                     : 2000
Продолжительность                        : 1 ч. 25 м.
Вид битрейта                             : Постоянный
Битрейт                                  : 192 Кбит/сек
Каналы                                   : 2 канала
Channel layout                           : L R
Частота                                  : 48,0 КГц
Частота кадров                           : 31,250 кадров/сек (1536 SPF)
Битовая глубина                          : 16 бит
Метод сжатия                             : С потерями
Размер потока                            : 117 Мбайт (8%)
Выравнивание                             : Разделение по промежуткам
Продолжительность промежутка             : 42  мс. (1,00 видеокадр)
Время предзагрузки промежутка            : 500  мс.
ServiceKind/String                       : Complete Main
[Профиль]    [ЛС]
Показать сообщения:    
Ответить на тему

Текущее время: Сегодня 04:56

Часовой пояс: GMT + 7



Вы не можете начинать темы
Вы не можете отвечать на сообщения
Вы не можете редактировать свои сообщения
Вы не можете удалять свои сообщения
Вы не можете голосовать в опросах
Вы не можете прикреплять файлы к сообщениям
Вы не можете скачивать файлы