Не оставляй следов / Leave No Trace (Дебра Граник / Debra Granik) [2018, США, драма, HDRip] MVO (HDRezka Studio) + Sub (Rus, Eng) + Original Eng

Ответить на тему
 
Автор Сообщение

torrentc.info

Создавать темы 08-Окт-2018 14:46

[Цитировать]

Не оставляй следов / Leave No Trace
[img=right]https://i5.imageban.ru/out/2018/10/07/c39d05866cc24...f82048.png[/img]
Год выхода: 2018
Страна: США
Жанр: драма
Продолжительность: 01:49:08-Перевод: Любительский (многоголосый закадровый) | HDRezka Studio
Субтитры: русские, английские
Оригинальная аудиодорожка: английский-Режиссер: Дебра Граник / Debra Granik-В ролях: Томасин МакКензи, Бен Фостер, Джеффри Риффлард, Майкл Дрэйпер, Дерек Джон Дрешер, Питер Симпсон, Эрик МакГлотлин, Дэна Милликэн, Райан Столяр-О фильме: Уилл и Том — отец и дочь, которые живут в лесопарке, добровольно изолировав себя от общества. Уилл считает, что лучше пить дождевую воду и питаться дарами природы, лишь изредка предпринимая краткосрочные вылазки в город, чем жить среди людей. Но по закону бездомным быть дозволяется, а жить на общественной земле — нет. После того, как рейнджеры и соцработники обнаруживают нелегальных Робинзонов, Уиллу и Том приходится покинуть насиженное место.-Качество: HDRip
Формат файла: AVI
Видео: 720x384 (1.88:1), 23.976 fps, XviD build 73 ~2209 kbps avg, 0.33 bit/pixel
Аудио 1: 48 kHz, AC3 Dolby Digital, 2/0 (L,R) ch, ~192 kbps | RUS
Аудио 2: 48 kHz, AC3 Dolby Digital, 3/2 (L,C,R,l,r) + LFE ch, ~448 kbps | ENG-

Сэмпл-

MediaInfo

Формат файла                                   : AVI
Формат файла/Информация                        : Audio Video Interleave
Профиль формата                          : OpenDML
Размер файла                             : 2,18 Гбайт
Продолжительность                        : 1 ч. 49 м.
Общий поток                              : 2856 Кбит/сек
Программа кодирования                    : VirtualDubMod 1.5.10.3 | www.virtualdub-fr.org || (build 2550/release)
Библиотека кодирования                   : VirtualDubMod build 2550/release
Видео
Идентификатор                            : 0
Формат файла                                   : MPEG-4 Visual
Профиль формата                          : Advanced Simple@L5
Настройки формата                        : BVOP1 / Custom Matrix
Параметр BVOP формата                    : 1
Параметр QPel формата                    : Нет
Параметр GMC формата                     : Без точки перехода
Параметр матрицы формата                 : Выборочная
Идентификатор кодека                     : XVID
Идентификатор кодека/Подсказка           : XviD
Продолжительность                        : 1 ч. 49 м.
Битрейт                                  : 2198 Кбит/сек
Ширина                                   : 720 пикселей
Высота                                   : 384 пикселя
Соотношение сторон                       : 1,85:1
Частота кадров                           : 23,976 (24000/1001) кадра/сек
Цветовое пространство                    : YUV
Субдискретизация насыщенности            : 4:2:0
Битовая глубина                          : 8 бит
Тип развёртки                            : Прогрессивная
Метод сжатия                             : С потерями
Бит/(Пиксели*Кадры)                      : 0.332
Размер потока                            : 1,68 Гбайт (77%)
Библиотека кодирования                   : XviD 73
Аудио #1
Идентификатор                            : 1
Формат файла                                   : AC-3
Формат файла/Информация                        : Audio Coding 3
Коммерческое название                    : Dolby Digital
Идентификатор кодека                     : 2000
Продолжительность                        : 1 ч. 49 м.
Вид битрейта                             : Постоянный
Битрейт                                  : 192 Кбит/сек
Каналы                                   : 2 канала
Channel layout                           : L R
Частота                                  : 48,0 КГц
Частота кадров                           : 31,250 кадров/сек (1536 SPF)
Битовая глубина                          : 16 бит
Метод сжатия                             : С потерями
Размер потока                            : 150 Мбайт (7%)
Выравнивание                             : Разделение по промежуткам
Продолжительность промежутка             : 42  мс. (1,00 видеокадр)
Время предзагрузки промежутка            : 500  мс.
ServiceKind/String                       : Complete Main
Аудио #2
Идентификатор                            : 2
Формат файла                                   : AC-3
Формат файла/Информация                        : Audio Coding 3
Коммерческое название                    : Dolby Digital
Идентификатор кодека                     : 2000
Продолжительность                        : 1 ч. 49 м.
Вид битрейта                             : Постоянный
Битрейт                                  : 448 Кбит/сек
Каналы                                   : 6 каналов
Channel layout                           : L R C LFE Ls Rs
Частота                                  : 48,0 КГц
Частота кадров                           : 31,250 кадров/сек (1536 SPF)
Битовая глубина                          : 16 бит
Метод сжатия                             : С потерями
Размер потока                            : 350 Мбайт (16%)
Выравнивание                             : Разделение по промежуткам
Продолжительность промежутка             : 42  мс. (1,00 видеокадр)
Время предзагрузки промежутка            : 500  мс.
ServiceKind/String                       : Complete Main
[Профиль]    [ЛС]
Показать сообщения:    
Ответить на тему

Текущее время: Сегодня 04:26

Часовой пояс: GMT + 7



Вы не можете начинать темы
Вы не можете отвечать на сообщения
Вы не можете редактировать свои сообщения
Вы не можете удалять свои сообщения
Вы не можете голосовать в опросах
Вы не можете прикреплять файлы к сообщениям
Вы не можете скачивать файлы