Не оставляй следов / Leave No Trace (Дебра Граник / Debra Granik) [2018, США, драма, BDRip-AVC] MVO (HDRezka Studio) + Original (Eng) + Sub (Rus, Eng)

Ответить на тему
 
Автор Сообщение

torrentc.info

Создавать темы 08-Окт-2018 14:46

[Цитировать]

Не оставляй следов / Leave No Trace-[img=right]https://i6.imageban.ru/out/2018/10/07/54a01af404c2d...cf5b5c.jpg[/img]
Год выхода: 2018
Выпущено: США / BRON Studios
Жанр: драма
Продолжительность: 01:49:08
Перевод: Любительский (многоголосый закадровый) HDRezka Studio
Субтитры: Русские (полные - Focs), Английские (полные, SDH) (внешние *.srt)
Оригинальная аудиодорожка: Английская
Навигация по главам: Есть (20 глав)-Режиссер:
Дебра Граник / Debra Granik-В ролях:
Томасин МакКензи (Tom), Бен Фостер (Will), Джеффри Риффлард (Vet at VA), Дерек Джон Дрешер (Larry), Майкл Дрэйпер (Runner), Питер Симпсон (Police Officer), Эрик МакГлотлин (K-9 Officer), Дэна Милликэн (Jean), Алисса Маккей (Valerie), Райан Джойнер (Tiffany)-О фильме:
Уилл и Том — отец и дочь, которые живут в лесопарке, добровольно изолировав себя от общества. Уилл считает, что лучше пить дождевую воду и питаться дарами природы, лишь изредка предпринимая краткосрочные вылазки в город, чем жить среди людей. Но по закону бездомным быть дозволяется, а жить на общественной земле — нет. После того, как рейнджеры и соцработники обнаруживают нелегальных Робинзонов, Уиллу и Том приходится покинуть насиженное место.-
| | IMDB | КиноПоиск | Сэмпл |-Качество: BDRip-AVC [Leave.No.Trace.2018.LIMITED.COMPLETE.BLURAY-CBGB]
Формат файла: MKV
Видео: 1152x624 (1,85:1), 23.976 fps, x264 ~2874 kbps avg, 0.167 bit/pixel
Аудио #1: 48 kHz, AC3 Dolby Digital, 2/0 (L,R) ch, ~192 kbps avg (RUS)
Аудио #2: 48 kHz, AC3 Dolby Digital, 3/2 (L,C,R,l,r) + LFE ch, ~448.00 kbps (ENG)-
[img]https://i6.imageban.ru/thumbs/2018.10.08/cd1b313739d5c032c4f39ecd4baaad2a.jpg[/img]-[img]https://i6.imageban.ru/thumbs/2018.10.08/db7c4daa5ad0911a1cff0cd2de3a4787.jpg[/img][img]https://i4.imageban.ru/thumbs/2018.10.08/50a0de9248b31e793fcff6a7c34e62f6.jpg[/img][img]https://i1.imageban.ru/thumbs/2018.10.08/fc281d7c3abb3be945eec2c1ad6e0de8.jpg[/img][img]https://i2.imageban.ru/thumbs/2018.10.08/8cec3fa08cecc670617080671ae0c2cd.jpg[/img]MediaInfo">

Скриншоты[img]https://i6.imageban.ru/thumbs/2018.10.08/cd1b313739d5c032c4f39ecd4baaad2a.jpg[/img]-[img]https://i6.imageban.ru/thumbs/2018.10.08/db7c4daa5ad0911a1cff0cd2de3a4787.jpg[/img][img]https://i4.imageban.ru/thumbs/2018.10.08/50a0de9248b31e793fcff6a7c34e62f6.jpg[/img][img]https://i1.imageban.ru/thumbs/2018.10.08/fc281d7c3abb3be945eec2c1ad6e0de8.jpg[/img][img]https://i2.imageban.ru/thumbs/2018.10.08/8cec3fa08cecc670617080671ae0c2cd.jpg[/img]MediaInfo

Общее
Полное имя                               : D:\Ne_ostavlyai_sledov_2018_BDRip-AVC_MVO_by_Dalemake.mkv
Формат файла                                   : Matroska
Версия формата                           : Version 4 / Version 2
Размер файла                             : 2,73 Гбайт
Продолжительность                        : 1 ч. 49 м.
Общий поток                              : 3586 Кбит/сек
Название фильма                          : [Leave_No_Trace_2018_All_Films_by Dalemake]
Дата кодирования                         : UTC 2018-10-08 05:21:59
Программа кодирования                    : mkvmerge v6.1.0 ('Old Devil') built on Mar  4 2013 09:10:42
Библиотека кодирования                   : libebml v1.3.0 + libmatroska v1.4.0
Видео
Идентификатор                            : 1
Формат файла                                   : AVC
Формат файла/Информация                        : Advanced Video Codec
Профиль формата                          : High@L4.1
Параметр CABAC формата                   : Да
Параметр ReFrames формата                : 14 кадров
Идентификатор кодека                     : V_MPEG4/ISO/AVC
Продолжительность                        : 1 ч. 49 м.
Битрейт                                  : 2874 Кбит/сек
Ширина                                   : 1152 пикселя
Высота                                   : 624 пикселя
Соотношение сторон                       : 1,85:1
Режим частоты кадров                     : Постоянный
Частота кадров                           : 23,976 кадра/сек
Цветовое пространство                    : YUV
Субдискретизация насыщенности            : 4:2:0
Битовая глубина                          : 8 бит
Тип развёртки                            : Прогрессивная
Бит/(Пиксели*Кадры)                      : 0.167
Размер потока                            : 2,19 Гбайт (80%)
Заголовок                                : [Leave_No_Trace_2018_All_Films_by Dalemake]
Библиотека кодирования                   : x264 core 155 r2901 7d0ff22
Настройки программы                      : cabac=1 / ref=14 / deblock=1:-3:-2 / analyse=0x3:0x133 / me=umh / subme=10 / psy=1 / psy_rd=1.00:0.00 / mixed_ref=1 / me_range=48 / chroma_me=1 / trellis=2 / 8x8dct=1 / cqm=0 / deadzone=21,11 / fast_pskip=1 / chroma_qp_offset=-4 / threads=6 / lookahead_threads=1 / sliced_threads=0 / nr=0 / decimate=0 / interlaced=0 / bluray_compat=0 / constrained_intra=0 / bframes=12 / b_pyramid=2 / b_adapt=2 / b_bias=0 / direct=1 / weightb=1 / open_gop=0 / weightp=2 / keyint=240 / keyint_min=23 / scenecut=40 / intra_refresh=0 / rc_lookahead=60 / rc=crf / mbtree=0 / crf=17.9 / qcomp=0.60 / qpmin=0 / qpmax=69 / qpstep=4 / vbv_maxrate=50000 / vbv_bufsize=62500 / crf_max=0.0 / nal_hrd=none / filler=0 / ip_ratio=1.40 / pb_ratio=1.35 / aq=1:1.00
Язык                                     : English
Default                                  : Да
Forced                                   : Нет
Аудио #1
Идентификатор                            : 2
Формат файла                                   : AC-3
Формат файла/Информация                        : Audio Coding 3
Расширение режима                        : CM (complete main)
Параметр Endianness формата              : Big
Идентификатор кодека                     : A_AC3
Продолжительность                        : 1 ч. 49 м.
Вид битрейта                             : Постоянный
Битрейт                                  : 192 Кбит/сек
Каналы                                   : 2 канала
Расположение каналов                     : Front: L R
Частота                                  : 48,0 КГц
Метод сжатия                             : С потерями
Размер потока                            : 150 Мбайт (5%)
Заголовок                                : MVO - HDRezka Studio
Язык                                     : Russian
Default                                  : Да
Forced                                   : Нет
Аудио #2
Идентификатор                            : 3
Формат файла                                   : AC-3
Формат файла/Информация                        : Audio Coding 3
Расширение режима                        : CM (complete main)
Параметр Endianness формата              : Big
Идентификатор кодека                     : A_AC3
Продолжительность                        : 1 ч. 49 м.
Вид битрейта                             : Постоянный
Битрейт                                  : 448 Кбит/сек
Каналы                                   : 6 каналов
Расположение каналов                     : Front: L C R, Side: L R, LFE
Частота                                  : 48,0 КГц
Метод сжатия                             : С потерями
Размер потока                            : 350 Мбайт (12%)
Заголовок                                : Original
Язык                                     : English
Default                                  : Нет
Forced                                   : Нет
Текст #1
Идентификатор                            : 4
Формат файла                                   : UTF-8
Идентификатор кодека                     : S_TEXT/UTF8
Идентификатор кодека/Информация          : UTF-8 Plain Text
Заголовок                                : Full - Focs
Язык                                     : Russian
Default                                  : Нет
Forced                                   : Нет
Текст #2
Идентификатор                            : 5
Формат файла                                   : UTF-8
Идентификатор кодека                     : S_TEXT/UTF8
Идентификатор кодека/Информация          : UTF-8 Plain Text
Заголовок                                : Full
Язык                                     : English
Default                                  : Нет
Forced                                   : Нет
Текст #3
Идентификатор                            : 6
Формат файла                                   : UTF-8
Идентификатор кодека                     : S_TEXT/UTF8
Идентификатор кодека/Информация          : UTF-8 Plain Text
Заголовок                                : Full - SDH
Язык                                     : English
Default                                  : Нет
Forced                                   : Нет
Меню
00:00:00.000                             : en:00:00:00.000
00:06:03.863                             : en:00:06:03.863
00:12:19.113                             : en:00:12:19.113
00:17:38.975                             : en:00:17:38.975
00:24:16.080                             : en:00:24:16.080
00:31:44.569                             : en:00:31:44.569
00:37:35.879                             : en:00:37:35.879
00:43:43.663                             : en:00:43:43.663
00:46:33.624                             : en:00:46:33.624
00:51:24.498                             : en:00:51:24.498
00:58:27.212                             : en:00:58:27.212
01:02:13.605                             : en:01:02:13.605
01:07:40.056                             : en:01:07:40.056
01:11:50.348                             : en:01:11:50.348
01:17:27.685                             : en:01:17:27.685
01:22:42.875                             : en:01:22:42.875
01:28:44.486                             : en:01:28:44.486
01:34:25.869                             : en:01:34:25.869
01:36:38.543                             : en:01:36:38.543
01:43:32.206                             : en:01:43:32.206
-
[Профиль]    [ЛС]
Показать сообщения:    
Ответить на тему

Текущее время: Сегодня 23:19

Часовой пояс: GMT + 7



Вы не можете начинать темы
Вы не можете отвечать на сообщения
Вы не можете редактировать свои сообщения
Вы не можете удалять свои сообщения
Вы не можете голосовать в опросах
Вы не можете прикреплять файлы к сообщениям
Вы не можете скачивать файлы