Во власти стихии / Adrift (Бальтасар Кормакур / Baltasar Kormákur) [2018, США, Гонконг, Исландия, боевик, триллер, драма, мелодрама, приключения, HDRip] Dub (iTunes)

Ответить на тему
 
Автор Сообщение

torrentc.info

Создавать темы 08-Окт-2018 10:34

[Цитировать]

Во власти стихии / Adrift
Страна: США, Гонконг, Исландия
Жанр: боевик, триллер, драма, мелодрама, приключения
Год выхода: 2018
Продолжительность: 01:36:47
Перевод: Профессиональный (дублированный) iTunes
Субтитры: нет
Режиссер: Бальтасар Кормакур / Baltasar Kormákur
В ролях: Шейлин Вудли
Сэм Клафлин
Джеффри Томас
Элизабет Хоторн
Грэйс Палмер
Тэми Эшкрафт
Сиале Тунока
Kael Damlamian
Lei-Ming Caine
Neil Andrea
Описание: Их неожиданная встреча на Таити стала началом большой любви. Молодые и свободные, они отправляются в путешествие по Тихому океану на роскошной яхте. Неожиданно судно настигает один из самых мощных ураганов в истории, и отныне не только их будущее, но и сама жизнь находится во власти стихии…
Доп. информация: https://www.kinopoisk.ru/film/vo-vlasti-stikhii-2018-1015040/
Сэмпл: http://sendfile.su/1447033
Качество видео: HDRip найден в сети
Формат файла: AVI
Видео: 688x288 (2.39:1), 23.976 fps, XviD build 73 ~944 kbps avg, 0.20 bit/pixel
Аудио: 48 kHz, MPEG Layer 3, 2 ch, ~128.00 kbps avg

MediaInfo

GeneralComplete name : S:\Adrift.2018.D.745MB..aviFormat : AVIFormat/Info : Audio Video InterleaveFile size : 746 MiBDuration : 1h 36mnOverall bit rate : 1 078 Kbps
VideoID : 0Format : MPEG-4 VisualFormat profile : Advanced Simple@L5Format settings, BVOP : 1Format settings, QPel : NoFormat settings, GMC : No warppointsFormat settings, Matrix : CustomCodec ID : XVIDCodec ID/Hint : XviDDuration : 1h 36mnBit rate : 944 KbpsWidth : 688 pixelsHeight : 288 pixelsDisplay aspect ratio : 2.40:1Frame rate : 23.976 fpsColor space : YUVChroma subsampling : 4:2:0Bit depth : 8 bitsScan type : ProgressiveCompression mode : LossyBits/(Pixel*Frame) : 0.199Stream size : 654 MiB (88%)Writing library : XviD 73
AudioID : 1Format : MPEG AudioFormat version : Version 1Format profile : Layer 3Codec ID : 55Codec ID/Hint : MP3Duration : 1h 36mnBit rate mode : ConstantBit rate : 128 KbpsChannel(s) : 2 channelsSampling rate : 48.0 KHzCompression mode : LossyStream size : 88.6 MiB (12%)Alignment : Aligned on interleavesInterleave, duration : 167 ms (4.00 video frames)Interleave, preload duratio : 216 msWriting library : LAME3.99rEncoding settings : -m s -V 4 -q 2 -lowpass 17 -b 128

Скриншот c названием фильма

Скриншоты

[Профиль]    [ЛС]
Показать сообщения:    
Ответить на тему

Текущее время: Сегодня 00:08

Часовой пояс: GMT + 7



Вы не можете начинать темы
Вы не можете отвечать на сообщения
Вы не можете редактировать свои сообщения
Вы не можете удалять свои сообщения
Вы не можете голосовать в опросах
Вы не можете прикреплять файлы к сообщениям
Вы не можете скачивать файлы