Болтун / Blurt (Мишель Джонстон / Michelle Johnston) [2018, США, комедия, семейный, WEB-DLRip] Dub

Ответить на тему
 
Автор Сообщение

torrentc.info

Создавать темы 06-Окт-2018 23:52

[Цитировать]

Болтун / Blurt
Страна: США
Жанр: комедия, семейный
Год выхода: 2018
Продолжительность: 00:46:29
Перевод: Профессиональный (дублированный) - студия "Кипарис"по заказу Nickelodeon
Субтитры: нет
Оригинальная аудиодорожка: нет
Режиссер: Мишель Джонстон / Michelle Johnston
В ролях: Джейс Норман, ДжоДжо Сива, Синтия Мендез, Даниэлла Перкинс, Лилиан Доучет-Рош, Ализа Веллани, Джеймс Риттингер, Джордан Тейлор, Тейлор Дайян Робинсон, Анита Гамильтон
Описание: Главный герой молодежной комедии "Болтун" - самый обычный парень по имени Норман. Он живет вместе со своими родителями и сестрой Викторией в маленьком провинциальном городке, где все друг друга знают. До определенного момента, его жизнь ничем не отличалась от жизни любого подростка его возраста. Норман ходит в среднюю школу, общается со своими сверстниками и увлекается видеоиграми. Однажды он посетил торговый центр, где была представлена новая видеоигра. Всем желающим можно было полностью окунуться в виртуальный мир, надев для этого специальные очки. Норман отлично провел время в торговом центре, даже не подозревая, что с этого момента его жизнь кардинальным образом изменится. После того как парень примерил очки, его мозг стал функционировать не совсем обычным образом. Теперь Норман говорил правду и только правду. Причем он выбалтывал все свои секреты и секреты своих друзей. Согласитесь, не очень приятно, когда ты выбалтываешь все на свете и первое, что придет в голову. Бедолага Норман оказался в весьма затруднительном положении. Теперь он не хочет без крайней необходимости выходить из дому, чтобы в очередной раз не попасть впросак. Необходимо что-то с этим делать. Но как заставить свой мозг вернуться в прежний режим существования? Его сестра Виктория вместе со своими подругами берутся помочь парню. Но сделать это будет очень непросто.
Кинопоиск - IMDb
Sample
Качество видео: WEB-DLRip
Формат файла: AVI
Видео: 720x400 (1.80:1), 23.976 fps, XviD build 73 ~2041 kbps avg, 0.29 bit/pixel
Аудио: Russian (AC3, 2 ch, 192 kbps, 16 bits, 48.0 KHz) - DUB

MediaInfo

General
Complete name : J:\Blurt 2018 WEB-DLRip.avi
Format : AVI
Format/Info : Audio Video Interleave
File size : 746 MiB
Duration : 46 min 29 s
Overall bit rate : 2 243 kb/s
Writing application : VirtualDubMod 1.5.10.3 | www.virtualdub-fr.org || (build 2550/release)
Writing library : VirtualDubMod build 2550/release
Video
ID : 0
Format : MPEG-4 Visual
Format profile : Advanced Simple@L5
Format settings : BVOP1
Format settings, BVOP : 1
Format settings, QPel : No
Format settings, GMC : No warppoints
Format settings, Matrix : Default (MPEG)
Codec ID : XVID
Codec ID/Hint : XviD
Duration : 46 min 29 s
Bit rate : 2 042 kb/s
Width : 720 pixels
Height : 400 pixels
Display aspect ratio : 16:9
Frame rate : 23.976 (24000/1001) FPS
Color space : YUV
Chroma subsampling : 4:2:0
Bit depth : 8 bits
Scan type : Progressive
Compression mode : Lossy
Bits/(Pixel*Frame) : 0.296
Stream size : 679 MiB (91%)
Writing library : XviD 73
Audio
ID : 1
Format : AC-3
Format/Info : Audio Coding 3
Codec ID : 2000
Duration : 46 min 29 s
Bit rate mode : Constant
Bit rate : 192 kb/s
Channel(s) : 2 channels
Channel positions : Front: L R
Sampling rate : 48.0 kHz
Frame rate : 31.250 FPS (1536 SPF)
Bit depth : 16 bits
Compression mode : Lossy
Stream size : 63.8 MiB (9%)
Alignment : Split accross interleaves
Interleave, duration : 42 ms (1.00 video frame)
Interleave, preload duratio : 500 ms
Service kind : Complete Main
[Профиль]    [ЛС]
Показать сообщения:    
Ответить на тему

Текущее время: Сегодня 14:43

Часовой пояс: GMT + 7



Вы не можете начинать темы
Вы не можете отвечать на сообщения
Вы не можете редактировать свои сообщения
Вы не можете удалять свои сообщения
Вы не можете голосовать в опросах
Вы не можете прикреплять файлы к сообщениям
Вы не можете скачивать файлы