Скуби Ду и Призрак-гурман / Scooby-Doo! and the Gourmet Ghost (Даг Мерфи / Doug Murphy) [2018, США, Мультипликация, WEB-DL 1080p] MVO

Ответить на тему
Статистика раздачи [Обновить пиров]
Размер:  3.06 GB   |    Зарегистрирован:  1 месяц 13 дней   |    Скачан:  0 раз

Полного источника не было: Никогда

 
   
 
 
 
Автор Сообщение

torrentc.info

Создавать темы 06-Окт-2018 15:49

[Цитировать]

Скуби Ду и Призрак-гурман / Scooby-Doo! and the Gourmet Ghost
[img=right]https://a.radikal.ru/a18/1810/35/16f6fa9dd465.png[/img]
Страна: США
Жанр: Мультипликация
Продолжительность: 01:17:14
Год выхода: 2018
Перевод: Любительский (многоголосый закадровый) Колобок
Русские субтитры: нет-Режиссёр: Даг Мерфи / Doug Murphy
Роли озвучивали: Джада Де Лаурентиис, Бобби Флей, Грэй ДеЛисл, Мэттью Лиллард, Кейт Микуччи, Фрэнк Уэлкер-Описание: Скуби Ду и его друзья отправляются отдохнуть к дальнему родственнику Фреда - Бобби Флэю, который является известнейшим шеф-поваром и как раз собирается открыть новый кулинарный курорт на месте старой таверны, принадлежавшей его предку - шеф-повару Эдварду Дюфле, которого погубил некий Красный Призрак. Спустя два с половиной столетия зловещая легенда вновь напоминает о себе...- -
- За работу со звуком Огромное спасибо Нордер-Качество: WEB-DL 1080p
Формат файла: MKV
Видео: AVC, 1912x1072 (16:9), 23.976 fps, 4 991 Kbps (0.102 bit/pixel)
Аудио 1: AC-3, 48.0 KHz, 2 ch, 192 Kbps, CBR (Russian)
Аудио 2: AC-3, 48.0 KHz, 6 ch, 384 Kbps, CBR (English)
Субтитры: English
Семпл: Забираем тут

Подробные технические данные

ОбщееУникальный идентификатор : 250484245830327523391830513898421510212 (0xBC7182CE8C8D7D309F3C52581A0C6044)Полное имя : Scooby-Doo And the Gourmet Ghost 2018 1080p WEB-DL.mkvФормат файла : MatroskaВерсия формата : Version 4 / Version 2Размер файла : 3,06 ГбайтПродолжительность : 1 ч. 17 м.Общий поток : 5681 Кбит/секДата кодирования : UTC 2018-10-02 12:45:46Программа кодирования : mkvmerge v15.0.0 ('Duel with the Devil') 64-bitБиблиотека кодирования : libebml v1.3.5 + libmatroska v1.4.5
ВидеоИдентификатор : 1Формат файла : AVCФормат файла/Информация : Advanced Video CodecПрофиль формата : High@L4Параметр CABAC формата : ДаПараметр ReFrames формата : 4 кадраИдентификатор кодека : V_MPEG4/ISO/AVCПродолжительность : 1 ч. 17 м.Битрейт : 4992 Кбит/секШирина : 1912 пикселейВысота : 1072 пикселяСоотношение сторон : 16:9Режим частоты кадров : ПостоянныйЧастота кадров : 23,976 (24000/1001) кадра/секЦветовое пространство : YUVСубдискретизация насыщенности : 4:2:0Битовая глубина : 8 битТип развёртки : ПрогрессивнаяБит/(Пиксели*Кадры) : 0.102Размер потока : 2,69 Гбайт (88%)Язык : EnglishDefault : ДаForced : НетЦветовой диапазон : LimitedОсновные цвета : BT.709Характеристики трансфера : BT.709Коэффициенты матрицы : BT.709
Аудио #1Идентификатор : 2Формат файла : AC-3Формат файла/Информация : Audio Coding 3Расширение режима : CM (complete main)Параметр Endianness формата : BigИдентификатор кодека : A_AC3Продолжительность : 1 ч. 17 м.Вид битрейта : ПостоянныйБитрейт : 192 Кбит/секКаналы : 2 каналаРасположение каналов : Front: L RЧастота : 48,0 КГцЧастота кадров : 31,250 кадров/сек (1536 spf)Метод сжатия : С потерямиРазмер потока : 106 Мбайт (3%)Язык : RussianDefault : ДаForced : Нет
Аудио #2Идентификатор : 3Формат файла : AC-3Формат файла/Информация : Audio Coding 3Расширение режима : CM (complete main)Параметр Endianness формата : BigИдентификатор кодека : A_AC3Продолжительность : 1 ч. 17 м.Вид битрейта : ПостоянныйБитрейт : 384 Кбит/секКаналы : 6 каналовРасположение каналов : Front: L C R, Side: L R, LFEЧастота : 48,0 КГцЧастота кадров : 31,250 кадров/сек (1536 spf)Метод сжатия : С потерямиРазмер потока : 212 Мбайт (7%)Язык : EnglishDefault : НетForced : Нет
ТекстИдентификатор : 4Формат файла : UTF-8Идентификатор кодека : S_TEXT/UTF8Идентификатор кодека/Информация : UTF-8 Plain TextЯзык : EnglishDefault : НетForced : Нет
Меню00:00:00.000 : :100:08:01.000 : :200:19:32.000 : :300:28:01.000 : :400:36:36.000 : :500:45:18.000 : :600:54:49.000 : :701:04:50.000 : :801:14:38.000 : :9

Скриншоты




[torrentc.info]_t_5622251.torrent
Торрент: Зарегистрирован ·  [ 2018-10-06 15:49 ] ·  40838c614383e3b52192ee04d6e36a3bb0a13960

16 KB

Статус: проверено
Скачан: 0 раз
Размер: 3.06 GB
Оценка: 
(Голосов: 0)
Сказали спасибо: 0  Спасибо
Похожие темы
[Профиль]    [ЛС]
Показать сообщения:    
Ответить на тему

Текущее время: Сегодня 15:40

Часовой пояс: GMT + 7



Вы не можете начинать темы
Вы не можете отвечать на сообщения
Вы не можете редактировать свои сообщения
Вы не можете удалять свои сообщения
Вы не можете голосовать в опросах
Вы не можете прикреплять файлы к сообщениям
Вы можете скачивать файлы