Человек-муравей и Оса / Ant-Man and the Wasp (Пейтон Рид / Peyton Reed) [2018, США, фантастика, боевик, приключения, HDRip-AVC] Dub (iTunes) + Original (Eng) + Sub (Rus, Eng)

Ответить на тему
 
Автор Сообщение

torrentc.info

Создавать темы 06-Окт-2018 04:43

[Цитировать]

Человек-муравей и Оса / Ant-Man and the Wasp-[img=right]https://i5.imageban.ru/out/2018/10/05/d31b81fb21619...816a89.png[/img]
Год выхода: 2018
Выпущено: США / Marvel Studios
Жанр: фантастика, боевик, приключения
Продолжительность: 01:58:06
Перевод: Профессиональный (полное дублирование)
Субтитры: Русские (форс., полные, SDH), Английские (полные)
Оригинальная аудиодорожка: Английская
Навигация по главам: Есть (18 глав)-Режиссер:
Пейтон Рид / Peyton Reed-В ролях:
Пол Радд, Эванджелин Лилли, Майкл Пенья, Уолтон Гоггинс, Бобби Каннавейл, Джуди Грир, Ти Ай, Давид Дастмалчян, Ханна Джон-Кэймен, Эбби Райдер Фортсон-О фильме:
Скотт Лэнг, известный также как Человек-муравей, уже заслужил право оказаться в команде Мстителей. Но желание быть ближе к дочери удерживает его в родном Сан-Франциско — до тех пор, пока доктор Хэнк Пим, создавший когда-то изменяющий размеры своего владельца чудо-костюм, не призывает Скотта присоединиться к новой опасной миссии. А помогать в противостоянии с коварным врагом Человеку-муравью будет новая напарница — Оса.-
| | IMDB | КиноПоиск | Сэмпл |-Качество: HDRip-AVC [Ant-Man.and.the.Wasp.2018.1080p.BluRay.x264-SPARKS]
Формат файла: MKV
Видео: 1152x482 (2,40:1), 23.976 fps, x264 ~1952 kbps avg, 0.147 bit/pixel
Аудио #1: 48 kHz, AC3 Dolby Digital, 3/2 (L,C,R,l,r) + LFE ch, ~384.00 kbps avg (RUS) - iTunes Russia
Аудио #2: 48 kHz, AC3 Dolby Digital, 3/2 (L,C,R,l,r) + LFE ch, ~384.00 kbps avg (ENG)
Формат файла субтитров: Softsub (.srt*)-
[img]https://i3.imageban.ru/thumbs/2018.10.05/1adf51bc5a7d6e9ab164b46669ea6b26.jpg[/img]-[img]https://i3.imageban.ru/thumbs/2018.10.05/c8067d148690d92af95d822a67d0005a.jpg[/img][img]https://i5.imageban.ru/thumbs/2018.10.05/7ec03792c2f0af0af09077e8c74c0399.jpg[/img][img]https://i3.imageban.ru/thumbs/2018.10.05/a12e1c3d6ecee344ec786563f6198cc8.jpg[/img][img]https://i3.imageban.ru/thumbs/2018.10.05/4081c64f4a2d1c181145de639fa2397b.jpg[/img]MediaInfo">

Скриншоты[img]https://i3.imageban.ru/thumbs/2018.10.05/1adf51bc5a7d6e9ab164b46669ea6b26.jpg[/img]-[img]https://i3.imageban.ru/thumbs/2018.10.05/c8067d148690d92af95d822a67d0005a.jpg[/img][img]https://i5.imageban.ru/thumbs/2018.10.05/7ec03792c2f0af0af09077e8c74c0399.jpg[/img][img]https://i3.imageban.ru/thumbs/2018.10.05/a12e1c3d6ecee344ec786563f6198cc8.jpg[/img][img]https://i3.imageban.ru/thumbs/2018.10.05/4081c64f4a2d1c181145de639fa2397b.jpg[/img]MediaInfo

Общее
Полное имя                               : D:\Chelovek_muravey_i_Osa_2018_HDRip-AVC_iT_by_Dalemake.mkv
Формат файла                                   : Matroska
Версия формата                           : Version 4 / Version 2
Размер файла                             : 2,30 Гбайт
Продолжительность                        : 1 ч. 58 м.
Общий поток                              : 2775 Кбит/сек
Название фильма                          : [Ant-Man_and_the_Wasp_2018_All_Films_by Dalemake]
Дата кодирования                         : UTC 2018-10-05 04:14:14
Программа кодирования                    : mkvmerge v7.8.0 ('River Man') 32bit built on Apr  3 2015 12:11:22
Библиотека кодирования                   : libebml v1.3.1 + libmatroska v1.4.2
DURATION                                 : 01:30:04.738000000
NUMBER_OF_FRAMES                         : 4
NUMBER_OF_BYTES                          : 209
_STATISTICS_WRITING_APP                  : mkvmerge v7.8.0 ('River Man') 32bit built on Apr  3 2015 12:11:22
_STATISTICS_WRITING_DATE_UTC             : 2018-10-05 04:14:14
_STATISTICS_TAGS                         : BPS DURATION NUMBER_OF_FRAMES NUMBER_OF_BYTES
Видео
Идентификатор                            : 1
Формат файла                                   : AVC
Формат файла/Информация                        : Advanced Video Codec
Профиль формата                          : High@L4.1
Параметр CABAC формата                   : Да
Параметр ReFrames формата                : 13 кадров
Идентификатор кодека                     : V_MPEG4/ISO/AVC
Продолжительность                        : 1 ч. 58 м.
Битрейт                                  : 1952 Кбит/сек
Ширина                                   : 1152 пикселя
Высота                                   : 482 пикселя
Соотношение сторон                       : 2,40:1
Частота кадров                           : 23,976 кадра/сек
Цветовое пространство                    : YUV
Субдискретизация насыщенности            : 4:2:0
Битовая глубина                          : 8 бит
Тип развёртки                            : Прогрессивная
Бит/(Пиксели*Кадры)                      : 0.147
Размер потока                            : 1,62 Гбайт (70%)
Заголовок                                : [Ant-Man_and_the_Wasp_2018_All_Films_by Dalemake]
Библиотека кодирования                   : x264 core 155 r2901 7d0ff22
Настройки программы                      : cabac=1 / ref=13 / deblock=1:-2:-2 / analyse=0x3:0x133 / me=umh / subme=10 / psy=1 / psy_rd=1.00:0.00 / mixed_ref=1 / me_range=48 / chroma_me=1 / trellis=2 / 8x8dct=1 / cqm=0 / deadzone=21,11 / fast_pskip=1 / chroma_qp_offset=-4 / threads=6 / lookahead_threads=1 / sliced_threads=0 / nr=0 / decimate=0 / interlaced=0 / bluray_compat=0 / constrained_intra=0 / bframes=11 / b_pyramid=2 / b_adapt=2 / b_bias=0 / direct=1 / weightb=1 / open_gop=0 / weightp=2 / keyint=240 / keyint_min=23 / scenecut=40 / intra_refresh=0 / rc_lookahead=60 / rc=crf / mbtree=0 / crf=18.1 / qcomp=0.60 / qpmin=0 / qpmax=69 / qpstep=4 / vbv_maxrate=50000 / vbv_bufsize=62500 / crf_max=0.0 / nal_hrd=none / filler=0 / ip_ratio=1.40 / pb_ratio=1.35 / aq=1:1.00
Язык                                     : English
Default                                  : Да
Forced                                   : Нет
DURATION                                 : 01:58:06.508000000
NUMBER_OF_FRAMES                         : 169906
NUMBER_OF_BYTES                          : 1783476513
_STATISTICS_WRITING_APP                  : mkvmerge v7.8.0 ('River Man') 32bit built on Apr  3 2015 12:11:22
_STATISTICS_WRITING_DATE_UTC             : 2018-10-05 04:14:14
_STATISTICS_TAGS                         : BPS DURATION NUMBER_OF_FRAMES NUMBER_OF_BYTES
Аудио #1
Идентификатор                            : 2
Формат файла                                   : AC-3
Формат файла/Информация                        : Audio Coding 3
Расширение режима                        : CM (complete main)
Параметр Endianness формата              : Big
Идентификатор кодека                     : A_AC3
Продолжительность                        : 1 ч. 58 м.
Вид битрейта                             : Постоянный
Битрейт                                  : 384 Кбит/сек
Каналы                                   : 6 каналов
Расположение каналов                     : Front: L C R, Side: L R, LFE
Частота                                  : 48,0 КГц
Битовая глубина                          : 16 бит
Метод сжатия                             : С потерями
Размер потока                            : 326 Мбайт (14%)
Заголовок                                : Dub - iTunes Russia
Язык                                     : Russian
Default                                  : Да
Forced                                   : Нет
Аудио #2
Идентификатор                            : 3
Формат файла                                   : AC-3
Формат файла/Информация                        : Audio Coding 3
Расширение режима                        : CM (complete main)
Параметр Endianness формата              : Big
Идентификатор кодека                     : A_AC3
Продолжительность                        : 1 ч. 58 м.
Вид битрейта                             : Постоянный
Битрейт                                  : 384 Кбит/сек
Каналы                                   : 6 каналов
Расположение каналов                     : Front: L C R, Side: L R, LFE
Частота                                  : 48,0 КГц
Битовая глубина                          : 16 бит
Метод сжатия                             : С потерями
Размер потока                            : 326 Мбайт (14%)
Заголовок                                : Original
Язык                                     : English
Default                                  : Нет
Forced                                   : Нет
Текст #1
Идентификатор                            : 4
Формат файла                                   : UTF-8
Идентификатор кодека                     : S_TEXT/UTF8
Идентификатор кодека/Информация          : UTF-8 Plain Text
Заголовок                                : Forced
Язык                                     : Russian
Default                                  : Да
Forced                                   : Да
Текст #2
Идентификатор                            : 5
Формат файла                                   : UTF-8
Идентификатор кодека                     : S_TEXT/UTF8
Идентификатор кодека/Информация          : UTF-8 Plain Text
Заголовок                                : Full
Язык                                     : Russian
Default                                  : Нет
Forced                                   : Нет
Текст #3
Идентификатор                            : 6
Формат файла                                   : UTF-8
Идентификатор кодека                     : S_TEXT/UTF8
Идентификатор кодека/Информация          : UTF-8 Plain Text
Заголовок                                : Full - SDH
Язык                                     : Russian
Default                                  : Нет
Forced                                   : Нет
Текст #4
Идентификатор                            : 7
Формат файла                                   : UTF-8
Идентификатор кодека                     : S_TEXT/UTF8
Идентификатор кодека/Информация          : UTF-8 Plain Text
Заголовок                                : Full
Язык                                     : English
Default                                  : Нет
Forced                                   : Нет
Меню
00:00:00.000                             : en:00:00:00.000
00:04:03.034                             : en:00:04:03.034
00:10:16.407                             : en:00:10:16.407
00:13:39.861                             : en:00:13:39.861
00:21:25.451                             : en:00:21:25.451
00:29:07.829                             : en:00:29:07.829
00:36:09.084                             : en:00:36:09.084
00:40:56.579                             : en:00:40:56.579
00:50:17.431                             : en:00:50:17.431
00:58:59.077                             : en:00:58:59.077
01:04:56.434                             : en:01:04:56.434
01:12:54.287                             : en:01:12:54.287
01:18:32.124                             : en:01:18:32.124
01:24:44.913                             : en:01:24:44.913
01:29:47.340                             : en:01:29:47.340
01:36:16.270                             : en:01:36:16.270
01:43:35.334                             : en:01:43:35.334
01:46:59.830                             : en:01:46:59.830
-
[Профиль]    [ЛС]
Показать сообщения:    
Ответить на тему

Текущее время: Сегодня 16:21

Часовой пояс: GMT + 7



Вы не можете начинать темы
Вы не можете отвечать на сообщения
Вы не можете редактировать свои сообщения
Вы не можете удалять свои сообщения
Вы не можете голосовать в опросах
Вы не можете прикреплять файлы к сообщениям
Вы не можете скачивать файлы