Апгрейд / Upgrade (Ли Уоннелл / Leigh Whannell) [2018, Австралия, фантастика, боевик, триллер, детектив, криминал, BDRip] MVO (СВ Студия)

Ответить на тему
 
Автор Сообщение

torrentc.info

Создавать темы 06-Окт-2018 01:21

[Цитировать]

Апгрейд / Upgrade
Страна: Австралия
Студия: Blumhouse Productions, Goalpost Pictures
Жанр: Фантастика, боевик, триллер, детектив, криминал
Год выхода: 2018
Продолжительность: 01:39:54
Перевод: Профессиональный (многоголосый закадровый) - СВ Студия
Субтитры: нет
Оригинальная аудиодорожка: нет
Режиссер: Ли Уоннелл / Leigh Whannell
В ролях: Логан Маршалл-Грин, Мелани Валльехо, Стив Даниелсен, Эбби Краден, Харрисон Гилбертсон, Бенедикт Харди, Ричард Коуторн, Кристофер Кирби, Ричард Анастасиос, Кенни Лоу, Линда Кроппер, Бетти Гэбриел, Саймон Мэйден
Описание: В недалеком будущем технологии контролируют все процессы жизни человечества. Когда технофоб Грей теряет в результате нападения банды отморозков жену, а сам оказывается парализованным, его единственной надеждой на отмщение становится новейшая научная разработка. Экспериментальный имплант «стем» не только ставит Грея на ноги, но наделяет его суперсовременным кибер-мозгом и сверхчеловеческими способностями.
Дополнительная информация:
Автор релиза - [img]https://img11.lostpic.net/2018/07/24/6c16c23c27890c...8129c8.gif[/img]
Заказ и выкуп перевода - ylnian и Ко
Источник: Torrentc для рипа - Blu-Ray (USA) - Upgrade.2018.MULTI.COMPLETE.BLURAY-EXTREME
Рекламы нет!

Сэмпл: http://multi-up.com/1210936
Качество видео: BDRip
Формат файла: AVI
Видео: XviD, 720x304 (2.35:1), 1636 kbps, 23.976 fps, 0.312 bit/pixel
Аудио: Русский AC3, 48000 Гц, 6ch, 448 kbps

MediaInfo

ОбщееПолное имя : D:\Upgrade.2018.BDRip-ylnian.aviФормат файла : AVIФормат файла/Информация : Audio Video InterleaveРазмер файла : 1,46 ГбайтПродолжительность : 1 ч. 39 м.Общий поток : 2093 Кбит/секПрограмма кодирования : VirtualDubMod 1.5.10.3 | www.virtualdub-fr.org || (build 2550/release)Библиотека кодирования : VirtualDubMod build 2550/release
ВидеоИдентификатор : 0Формат файла : MPEG-4 VisualПрофиль формата : Advanced Simple@L5Настройки формата : BVOP1 / Custom MatrixПараметр BVOP формата : 1Параметр QPel формата : НетПараметр GMC формата : Без точки переходаПараметр матрицы формата : ВыборочнаяИдентификатор кодека : XVIDИдентификатор кодека/Подсказка : XviDПродолжительность : 1 ч. 39 м.Битрейт : 1636 Кбит/секШирина : 720 пикселейВысота : 304 пикселяСоотношение сторон : 2,35:1Частота кадров : 23,976 (24000/1001) кадра/секЦветовое пространство : YUVСубдискретизация насыщенности : 4:2:0Битовая глубина : 8 битТип развёртки : ПрогрессивнаяМетод сжатия : С потерямиБит/(Пиксели*Кадры) : 0.312Размер потока : 1,14 Гбайт (78%)Библиотека кодирования : XviD 73
АудиоИдентификатор : 1Формат файла : AC-3Формат файла/Информация : Audio Coding 3Идентификатор кодека : 2000Продолжительность : 1 ч. 39 м.Вид битрейта : ПостоянныйБитрейт : 448 Кбит/секКаналы : 6 каналовРасположение каналов : Front: L C R, Side: L R, LFEЧастота : 48,0 КГцЧастота кадров : 31,250 кадров/сек (1536 SPF)Битовая глубина : 16 битМетод сжатия : С потерямиРазмер потока : 320 Мбайт (21%)Выравнивание : Разделение по промежуткамПродолжительность промежутка : 42 мс. (1,00 видеокадр)Время предзагрузки промежутка : 500 мс.Заголовок : RUS - MVO - СВ СтудияServiceKind/String : Complete Main
[Профиль]    [ЛС]
Показать сообщения:    
Ответить на тему

Текущее время: Сегодня 04:25

Часовой пояс: GMT + 7



Вы не можете начинать темы
Вы не можете отвечать на сообщения
Вы не можете редактировать свои сообщения
Вы не можете удалять свои сообщения
Вы не можете голосовать в опросах
Вы не можете прикреплять файлы к сообщениям
Вы не можете скачивать файлы