Тот самый Макс / Amanda and the Fox (Джои Сильвестр / Joey Sylvester) [2018, США, комедия, семейный, WEB-DLRip] MVO

Ответить на тему
 
Автор Сообщение

torrentc.info

Создавать темы 06-Окт-2018 01:21

[Цитировать]

Тот самый Макс / Amanda and the Fox
Страна: США
Жанр: комедия, семейный
Год выхода: 2018
Продолжительность: 01:14:26
Перевод: Профессиональный (многоголосый закадровый)
Субтитры: нет
Оригинальная аудиодорожка: нет
Режиссер: Джои Сильвестр / Joey Sylvester
В ролях: Ричард Карн, Джейсон Лондон, Элизабет Фостер, Кристин Меллиан, Стелла Шоха, Ричард Готери, Майкл Мили, Коллин Гентри, Кен Альтер, Лесли МакКарди
Описание: Десятилетняя Аманда отчаянно хочет собаку, но с ее отцом ее не будет. Когда она находит молодую лису, она и ее подруга Мэгги договариваются держать ее как домашнее животное. Как Аманда расскажет отцу и друзьям о своем новом друге Максе нам предстоит узнать.
Кинопоиск - IMDb
Sample
Качество видео: WEB-DLRip
Формат файла: AVI
Видео: 704x352 (2.00:1), 25 fps, XviD build 73 ~1895 kbps avg, 0.31 bit/pixel
Аудио: Russian (AC3, 2 ch, 192 kbps, 16 bits, 48.0 KHz) - MVO

MediaInfo

General
Complete name : D:\Тот самый Макс (2018).avi
Format : AVI
Format/Info : Audio Video Interleave
File size : 1.09 GiB
Duration : 1 h 14 min
Overall bit rate : 2 097 kb/s
Writing application : VirtualDubMod 1.5.10.3 | www.virtualdub-fr.org || (build 2550/release)
Writing library : VirtualDubMod build 2550/release
Video
ID : 0
Format : MPEG-4 Visual
Format profile : Advanced Simple@L5
Format settings : BVOP1
Format settings, BVOP : 1
Format settings, QPel : No
Format settings, GMC : No warppoints
Format settings, Matrix : Default (MPEG)
Codec ID : XVID
Codec ID/Hint : XviD
Duration : 1 h 14 min
Bit rate : 1 896 kb/s
Width : 704 pixels
Height : 352 pixels
Display aspect ratio : 2.000
Frame rate : 25.000 FPS
Color space : YUV
Chroma subsampling : 4:2:0
Bit depth : 8 bits
Scan type : Progressive
Compression mode : Lossy
Bits/(Pixel*Frame) : 0.306
Stream size : 1 009 MiB (90%)
Writing library : XviD 73
Audio
ID : 1
Format : AC-3
Format/Info : Audio Coding 3
Codec ID : 2000
Duration : 1 h 14 min
Bit rate mode : Constant
Bit rate : 192 kb/s
Channel(s) : 2 channels
Channel positions : Front: L R
Sampling rate : 48.0 kHz
Frame rate : 31.250 FPS (1536 SPF)
Bit depth : 16 bits
Compression mode : Lossy
Stream size : 102 MiB (9%)
Alignment : Split accross interleaves
Interleave, duration : 40 ms (1.00 video frame)
Interleave, preload duratio : 500 ms
Service kind : Complete Main
[Профиль]    [ЛС]
Показать сообщения:    
Ответить на тему

Текущее время: Сегодня 14:30

Часовой пояс: GMT + 7



Вы не можете начинать темы
Вы не можете отвечать на сообщения
Вы не можете редактировать свои сообщения
Вы не можете удалять свои сообщения
Вы не можете голосовать в опросах
Вы не можете прикреплять файлы к сообщениям
Вы не можете скачивать файлы