Операция «Финал» / Operation Finale (Крис Вайц / Chris Weitz) [2018, США, триллер, драма, биография, история, WEB-DLRip] Dub (Пифагор) + Sub (Rus)

Ответить на тему
 
Автор Сообщение

torrentc.info

Создавать темы 03-Окт-2018 23:44

[Цитировать]

Операция «Финал» / Operation Finale Страна: США
Жанр: Триллер, драма, биография, история
Год выхода: 2018
Продолжительность: 02:03:36-Перевод: Профессиональный (дублированный) | Пифагор
Субтитры: русские
Оригинальная аудиодорожка: отсутствует-Режиссер: Крис Вайц / Chris Weitz-В ролях: Оскар Айзек, Бен Кингсли, Мелани Лоран, Лайор Раз, Ник Кролл, Майкл Аронов, Охад Кноллер, Грег Хилл, Торбен Либрехт и другие...-Описание: История задержания одного из организаторов Холокоста Адольфа Эйхмана, который после войны сумел укрыться в Аргентине под чужим именем. Спустя 15 лет на его след выходит группа израильских разведчиков, включая высококлассного агента Питера Малкина, чьи родственники погибли по вине Эйхмана.-Качество видео: WEB-DLRip
Формат файла: AVI
Видео: 720x384 (1.85:1), 23.976 fps, XviD build 66 ~1191 kbps avg, 0.180 bit/pixel
Аудио: 48 kHz, AC3 Dolby Digital, 3/2 (L,C,R,l,r) + LFE ch, ~384 kbps-Реклама: Отсутствует

Сэмпл
: За дубляж и субтитры спасибо EniaHD

MediaInfo

General
Complete name                  : Operation.Finale.2018.HDRip.XviD.AC3\Operation.Finale.2018.HDRip.XviD.AC3.avi
Format                         : AVI
Format/Info                    : Audio Video Interleave
File size                      : 1.37 GiB
Duration                       : 2 h 3 min
Overall bit rate               : 1 586 kb/s
Video
ID                             : 0
Format                         : MPEG-4 Visual
Format profile                 : Advanced Simple@L5
Format settings                : BVOP2
Format settings, BVOP          : 2
Format settings, QPel          : No
Format settings, GMC           : No warppoints
Format settings, Matrix        : Default (H.263)
Codec ID                       : XVID
Codec ID/Hint                  : XviD
Duration                       : 2 h 3 min
Bit rate                       : 1 191 kb/s
Width                          : 720 pixels
Height                         : 384 pixels
Display aspect ratio           : 1.85:1
Frame rate                     : 23.976 (24000/1001) FPS
Color space                    : YUV
Chroma subsampling             : 4:2:0
Bit depth                      : 8 bits
Scan type                      : Progressive
Compression mode               : Lossy
Bits/(Pixel*Frame)             : 0.180
Stream size                    : 1.03 GiB (75%)
Writing library                : XviD 66
Audio
ID                             : 1
Format                         : AC-3
Format/Info                    : Audio Coding 3
Codec ID                       : 2000
Duration                       : 2 h 3 min
Bit rate mode                  : Constant
Bit rate                       : 384 kb/s
Channel(s)                     : 6 channels
Channel positions              : Front: L C R, Side: L R, LFE
Sampling rate                  : 48.0 kHz
Frame rate                     : 31.250 FPS (1536 SPF)
Bit depth                      : 16 bits
Compression mode               : Lossy
Stream size                    : 339 MiB (24%)
Alignment                      : Aligned on interleaves
Interleave, duration           : 32  ms (0.77 video frame)
Service kind                   : Complete Main
[Профиль]    [ЛС]
Показать сообщения:    
Ответить на тему

Текущее время: Сегодня 19:26

Часовой пояс: GMT + 7



Вы не можете начинать темы
Вы не можете отвечать на сообщения
Вы не можете редактировать свои сообщения
Вы не можете удалять свои сообщения
Вы не можете голосовать в опросах
Вы не можете прикреплять файлы к сообщениям
Вы не можете скачивать файлы