(Dubstep | Future Garage | Ambient) [WEB] Ghosts Of Paraguay - All of Me - 2018, FLAC (tracks), lossless

Ответить на тему
Статистика раздачи [Обновить пиров]
Размер:  300 MB   |    Зарегистрирован:  1 месяц 16 дней   |    Скачан:  0 раз

Полного источника не было: Никогда

 
   
 
 
 
Автор Сообщение

torrentc.info

Создавать темы 03-Окт-2018 03:19

[Цитировать]



Ghosts Of Paraguay

All of Me





• Жанр: Dubstep | Future Garage | Ambient
• Носитель: WEB
• Год издания: 2018
• Издатель (лейбл) Samizdat
• Страна исполнителя (группы): United Kingdom
• Аудиокодек: FLAC (*.flac)
• Тип рипа: tracks
• Продолжительность: 00:54:34
• Источник (спасибо): NBMus
• WEB qobuz
• Наличие сканов: front

01 - All Of Me (00:04:49)
02 - Unknown (00:04:32)
03 - Clarity (00:04:29)
04 - Stay (00:04:20)
05 - Beginnings (Feat. T Kai) (00:04:14)
06 - Lay To Rest (00:05:21)
07 - Rough Rider (00:05:31)
08 - Brave (00:04:28)
09 - Serum (00:04:11)
10 - Start Again (Feat. Aiden Dullaghan) (00:03:44)
11 - Your Embrace (00:04:21)
12 - Your Love (00:04:29)

-
-

• Замер динамического диапазона •

foobar2000 1.3.17 / Замер динамического диапазона (DR) 1.1.1Дата отчёта: 2018-08-19 14:17:45
--------------------------------------------------------------------------------Анализ: Ghosts Of Paraguay / All of Me--------------------------------------------------------------------------------
DR Пики RMS Продолжительность трека--------------------------------------------------------------------------------DR11 -0.87 дБ -14.22 дБ 4:50 01-All of MeDR12 -0.87 дБ -15.06 дБ 4:33 02-UnknownDR12 -0.87 дБ -15.04 дБ 4:29 03-ClarityDR12 -0.87 дБ -14.27 дБ 4:20 04-StayDR10 -0.87 дБ -14.31 дБ 4:15 05-Beginnings (feat. T Kai)DR11 -0.10 дБ -15.09 дБ 5:22 06-Lay to RestDR12 -0.87 дБ -15.29 дБ 5:31 07-Rough RiderDR12 -0.97 дБ -15.90 дБ 4:28 08-BraveDR12 -0.87 дБ -15.08 дБ 4:11 09-SerumDR13 -0.87 дБ -18.70 дБ 3:44 10-Start Again (feat. Aiden Dullaghan)DR11 -0.87 дБ -14.28 дБ 4:22 11-Your EmbraceDR12 -0.87 дБ -15.41 дБ 4:29 12-Your Love--------------------------------------------------------------------------------
Количество треков: 12Реальные значения DR: DR12
Частота: 44100 ГцКаналов: 2Разрядность: 16Битрейт: 792 кбит/сКодек: FLAC================================================================================
-

• Лог проверки качества •

-----------------------
DON'T MODIFY THIS FILE
-----------------------
PERFORMER: auCDtect Task Manager, ver. 1.6.0 RC1 build 1.6.0.1Copyright (c) 2008-2010 y-soft. All rights reservedhttp://y-soft.org
ANALYZER: auCDtect: CD records authenticity detector, version 0.8.2Copyright (c) 2004 Oleg Berngardt. All rights reserved.Copyright (c) 2004 Alexander Djourik. All rights reserved.
FILE: 12 - Your Love.flac Size: 26710461 Hash: D2E20B4B3D6C5E5A0D014EC1B78D838D Accuracy: -m0 Conclusion: CDDA 100% Signature: 95522B540D766F1ECCCA9297B902F924173186ABFILE: 11 - Your Embrace.flac Size: 27016972 Hash: E46E219B88E6E31CA118BBCF77E0543B Accuracy: -m0 Conclusion: CDDA 100% Signature: E0BD2C624031BB79E11101CA5F2C00D29FDD46F6FILE: 10 - Start Again (Feat. Aiden Dullaghan).flac Size: 15653527 Hash: 5AFD934E4DACE806D9888EE1EEF936CA Accuracy: -m0 Conclusion: CDDA 43% Signature: DDDFA304859CB66F0AB65401B2FC9DB30F1F527AFILE: 09 - Serum.flac Size: 23048247 Hash: F3A803F4E0F767B203B70A465DAC6B4C Accuracy: -m0 Conclusion: CDDA 100% Signature: 637A5D5FC4C048C49ED63680BDEF68324B5EAC60FILE: 08 - Brave.flac Size: 21082018 Hash: 0D6C971B64D2F4DA9D88BDE4B033EE60 Accuracy: -m0 Conclusion: CDDA 100% Signature: 227BAA54A2F2545F7B904EF2096301B19DE57E25FILE: 07 - Rough Rider.flac Size: 33908160 Hash: 62DA40D0737B4DD9BF89A75867CA5347 Accuracy: -m0 Conclusion: CDDA 99% Signature: EB2DD434A9D934DF3759C4D691290F37E88A28C5FILE: 06 - Lay To Rest.flac Size: 31691992 Hash: 2722333D6B5E7BB12E9F25E6B7559600 Accuracy: -m0 Conclusion: CDDA 99% Signature: F9BE9E5D48A8E5E5300DF701D1D664E4154403CCFILE: 05 - Beginnings (Feat. T Kai).flac Size: 22548808 Hash: EA8D4B7F7A4EE4DAD3E43ED37F3A6995 Accuracy: -m0 Conclusion: CDDA 100% Signature: 2CA5A18120C6910C02066D1557C442BE21BC8BC9FILE: 04 - Stay.flac Size: 29398181 Hash: 3944DEFFB9BC7325B55A565E01C3BE82 Accuracy: -m0 Conclusion: CDDA 100% Signature: 1427C3CC972539C76BBE77493E0889671D7F93D6FILE: 03 - Clarity.flac Size: 30112022 Hash: 847568C025C892567C7500131F10E8D8 Accuracy: -m0 Conclusion: CDDA 100% Signature: 43FE9C60B62DFA673F1E2DCD68FF1F1789BCE8B6FILE: 02 - Unknown.flac Size: 27687078 Hash: 2DF5BFA9D05A529C84FCDE4317BD14FE Accuracy: -m0 Conclusion: CDDA 100% Signature: 26C65A58A9B8A5F28495E38E15D16B2FA8D423C6FILE: 01 - All Of Me.flac Size: 26127828 Hash: B45A40CC0BD5364F9D3FFDD2A274F618 Accuracy: -m0 Conclusion: CDDA 100% Signature: A59CDC9F4CC94CB6ACE40B6DA1E2F7DF286377CE
-[img]https://i104.fastpic.ru/big/2018/0723/ef/fc14296b380a822d719f4966d46e77ef.jpg[/img]


[torrentc.info]_t_5602425.torrent
Торрент: Зарегистрирован ·  [ 2018-10-03 03:18 ] ·  09e2d716aa4e3e3d0017433e951cdda9895e8613

13 KB

Статус: проверено
Скачан: 0 раз
Размер: 300 MB
Оценка: 
(Голосов: 0)
Сказали спасибо: 0  Спасибо
Похожие темы
[Профиль]    [ЛС]
Показать сообщения:    
Ответить на тему

Текущее время: Сегодня 23:20

Часовой пояс: GMT + 7



Вы не можете начинать темы
Вы не можете отвечать на сообщения
Вы не можете редактировать свои сообщения
Вы не можете удалять свои сообщения
Вы не можете голосовать в опросах
Вы не можете прикреплять файлы к сообщениям
Вы можете скачивать файлы