(Nu Jazz, Hip-Hop, Afro-Jazz) [CD] Pipon Garcia Trio - Back to the Future - 2018, FLAC (tracks+.cue), lossless

Reply to topic
DL-List and Torrent activity [Update пиров]
Size:  289 MB   |    Registered:  1 year   |    Completed:  0 times

Seeder not seen: Never

 
   
 
 
 
Author Message

Mr_Fox

Post 02-Oct-2018 22:27

[Quote]

Pipon Garcia Trio - Back to the Future
Жанр: Nu Jazz, Hip-Hop, Afro-Jazz
Носитель: CD
Страна-производитель диска (релиза): Франция
Год издания: 2018
Издатель (лейбл): Metiola Productions
Аудиокодек: FLAC (*.flac)
Тип рипа: tracks+.cue
Битрейт аудио: lossless
Продолжительность: 50:58
Источник (релизер): Gpoff
Наличие сканов в содержимом раздачи: нет
Треклист:
01. Big Band (4:09)
02. Bad Radio (0:55)
03. Berimbau (3:28)
04. Fugue (1:56)
05. Marimba (2:45)
06. Bongos (4:35)
07. Melodica (2:49)
08. L12 (1:49)
09. Sounds Line (6:22)
10. Miss to Fear (1:36)
11. C50 Complex 4 (4:05)
12. 2 Steps (0:51)
13. New Ragga (2:53)
14. Bubble (3:41)
15. Funky KP (0:29)
16. Happy End (2:30)
17. Bamboo (1:32)
18. African Dubstep (3:10)
19. Infinite Mystery (1:23)
Состав:
Philippe Pipon Garcia - drums, sampler & programming, berimbau, flute, vocal, melodica
Sir Jean - vocals
Thibaud Soulas - double bass

Лог создания рипа

Exact Audio Copy V1.0 beta 3 from 29. August 2011
EAC extraction logfile from 29. September 2018, 10:36
Pipon Garcia Trio / Back To The Future
Used drive : ASUS SDRW-08U7M-U Adapter: 1 ID: 0
Read mode : SecureUtilize accurate stream : YesDefeat audio cache : YesMake use of C2 pointers : No
Read offset correction : 6Overread into Lead-In and Lead-Out : NoFill up missing offset samples with silence : YesDelete leading and trailing silent blocks : NoNull samples used in CRC calculations : YesUsed interface : Native Win32 interface for Win NT & 2000Gap handling : Appended to previous track
Used output format : User Defined EncoderSelected bitrate : 1024 kBit/sQuality : HighAdd ID3 tag : NoCommand line compressor : C:\Program Files (x86)\Exact Audio Copy\Flac\flac.exeAdditional command line options : -8 -V -T "ARTIST=%artist%" -T "TITLE=%title%" -T "ALBUM=%albumtitle%" -T "DATE=%year%" -T "TRACKNUMBER=%tracknr%" -T "GENRE=%genre%" -T "PERFORMER=%albuminterpret%" -T "COMPOSER=%composer%" %haslyrics%--tag-from-file=LYRICS="%lyricsfile%"%haslyrics% -T "ALBUMARTIST=%albumartist%" -T "DISCNUMBER=%cdnumber%" -T "TOTALDISCS=%totalcds%" -T "TOTALTRACKS=%numtracks%" -T "COMMENT=%comment%" %source% -o %dest%
TOC of the extracted CD
Track | Start | Length | Start sector | End sector --------------------------------------------------------- 1 | 0:00.00 | 4:08.55 | 0 | 18654 2 | 4:08.55 | 0:55.21 | 18655 | 22800 3 | 5:04.01 | 3:27.49 | 22801 | 38374 4 | 8:31.50 | 1:56.18 | 38375 | 47092 5 | 10:27.68 | 2:45.11 | 47093 | 59478 6 | 13:13.04 | 4:34.39 | 59479 | 80067 7 | 17:47.43 | 2:49.02 | 80068 | 92744 8 | 20:36.45 | 1:48.73 | 92745 | 100917 9 | 22:25.43 | 6:21.71 | 100918 | 129563 10 | 28:47.39 | 1:35.59 | 129564 | 136747 11 | 30:23.23 | 4:04.52 | 136748 | 155099 12 | 34:28.00 | 0:51.34 | 155100 | 158958 13 | 35:19.34 | 2:53.11 | 158959 | 171944 14 | 38:12.45 | 3:40.57 | 171945 | 188501 15 | 41:53.27 | 0:29.23 | 188502 | 190699 16 | 42:22.50 | 2:29.48 | 190700 | 201922 17 | 44:52.23 | 1:31.73 | 201923 | 208820 18 | 46:24.21 | 3:10.34 | 208821 | 223104 19 | 49:34.55 | 1:23.30 | 223105 | 229359
Track 1
Filename C:\EAC\Pipon Garcia Trio - Back To The Future - 2018 - FLAC - CD\01. Big Band.wav
Pre-gap length 0:00:02.00
Peak level 100.0 % Extraction speed 1.1 X Track quality 100.0 % Test CRC C20934BB Copy CRC C20934BB Track not present in AccurateRip database Copy OK
Track 2
Filename C:\EAC\Pipon Garcia Trio - Back To The Future - 2018 - FLAC - CD\02. Bad Radio.wav
Pre-gap length 0:00:02.00
Peak level 100.0 % Extraction speed 0.8 X Track quality 100.0 % Test CRC 8983A3B6 Copy CRC 8983A3B6 Track not present in AccurateRip database Copy OK
Track 3
Filename C:\EAC\Pipon Garcia Trio - Back To The Future - 2018 - FLAC - CD\03. Berimbau.wav
Pre-gap length 0:00:02.00
Peak level 100.0 % Extraction speed 1.2 X Track quality 100.0 % Test CRC 8A1CCD78 Copy CRC 8A1CCD78 Track not present in AccurateRip database Copy OK
Track 4
Filename C:\EAC\Pipon Garcia Trio - Back To The Future - 2018 - FLAC - CD\04. Fugue.wav
Pre-gap length 0:00:02.00
Peak level 100.0 % Extraction speed 1.2 X Track quality 100.0 % Test CRC BAAB2163 Copy CRC BAAB2163 Track not present in AccurateRip database Copy OK
Track 5
Filename C:\EAC\Pipon Garcia Trio - Back To The Future - 2018 - FLAC - CD\05. Marimba.wav
Pre-gap length 0:00:02.00
Peak level 100.0 % Extraction speed 1.3 X Track quality 100.0 % Test CRC 6196C3F9 Copy CRC 6196C3F9 Track not present in AccurateRip database Copy OK
Track 6
Filename C:\EAC\Pipon Garcia Trio - Back To The Future - 2018 - FLAC - CD\06. Bongos.wav
Pre-gap length 0:00:02.00
Peak level 100.0 % Extraction speed 1.4 X Track quality 99.9 % Test CRC 19DD448D Copy CRC 19DD448D Track not present in AccurateRip database Copy OK
Track 7
Filename C:\EAC\Pipon Garcia Trio - Back To The Future - 2018 - FLAC - CD\07. Mélodica.wav
Pre-gap length 0:00:02.00
Peak level 100.0 % Extraction speed 1.5 X Track quality 100.0 % Test CRC D9272094 Copy CRC D9272094 Track not present in AccurateRip database Copy OK
Track 8
Filename C:\EAC\Pipon Garcia Trio - Back To The Future - 2018 - FLAC - CD\08. L12.wav
Pre-gap length 0:00:02.00
Peak level 100.0 % Extraction speed 1.4 X Track quality 100.0 % Test CRC FA06B501 Copy CRC FA06B501 Track not present in AccurateRip database Copy OK
Track 9
Filename C:\EAC\Pipon Garcia Trio - Back To The Future - 2018 - FLAC - CD\09. Sounds Line.wav
Pre-gap length 0:00:02.00
Peak level 100.0 % Extraction speed 1.9 X Track quality 100.0 % Test CRC E097EC8C Copy CRC E097EC8C Track not present in AccurateRip database Copy OK
Track 10
Filename C:\EAC\Pipon Garcia Trio - Back To The Future - 2018 - FLAC - CD\10. Miss To Fear.wav
Pre-gap length 0:00:02.00
Peak level 100.0 % Extraction speed 1.5 X Track quality 100.0 % Test CRC D53B1356 Copy CRC D53B1356 Track not present in AccurateRip database Copy OK
Track 11
Filename C:\EAC\Pipon Garcia Trio - Back To The Future - 2018 - FLAC - CD\11. C50 Complex 4.wav
Pre-gap length 0:00:02.00
Peak level 100.0 % Extraction speed 1.7 X Track quality 99.9 % Test CRC 0B8E31EF Copy CRC 0B8E31EF Track not present in AccurateRip database Copy OK
Track 12
Filename C:\EAC\Pipon Garcia Trio - Back To The Future - 2018 - FLAC - CD\12. 2 Steps.wav
Pre-gap length 0:00:02.00
Peak level 100.0 % Extraction speed 0.9 X Track quality 99.7 % Test CRC 9A1AA864 Copy CRC 9A1AA864 Track not present in AccurateRip database Copy OK
Track 13
Filename C:\EAC\Pipon Garcia Trio - Back To The Future - 2018 - FLAC - CD\13. New Ragga.wav
Peak level 100.0 % Extraction speed 1.9 X Track quality 100.0 % Test CRC 6EFD824D Copy CRC 6EFD824D Track not present in AccurateRip database Copy OK
Track 14
Filename C:\EAC\Pipon Garcia Trio - Back To The Future - 2018 - FLAC - CD\14. Bubble.wav
Pre-gap length 0:00:02.00
Peak level 100.0 % Extraction speed 1.8 X Track quality 99.9 % Test CRC 852927F2 Copy CRC 852927F2 Track not present in AccurateRip database Copy OK
Track 15
Filename C:\EAC\Pipon Garcia Trio - Back To The Future - 2018 - FLAC - CD\15. Funky KP.wav
Pre-gap length 0:00:02.00
Peak level 100.0 % Extraction speed 1.0 X Track quality 100.0 % Test CRC 5D8F56D7 Copy CRC 5D8F56D7 Track not present in AccurateRip database Copy OK
Track 16
Filename C:\EAC\Pipon Garcia Trio - Back To The Future - 2018 - FLAC - CD\16. Happy End.wav
Pre-gap length 0:00:02.00
Peak level 100.0 % Extraction speed 2.0 X Track quality 100.0 % Test CRC EFEE67E6 Copy CRC EFEE67E6 Track not present in AccurateRip database Copy OK
Track 17
Filename C:\EAC\Pipon Garcia Trio - Back To The Future - 2018 - FLAC - CD\17. Bamboo.wav
Pre-gap length 0:00:02.00
Peak level 69.9 % Extraction speed 1.4 X Track quality 99.8 % Test CRC 472979C3 Copy CRC 472979C3 Track not present in AccurateRip database Copy OK
Track 18
Filename C:\EAC\Pipon Garcia Trio - Back To The Future - 2018 - FLAC - CD\18. African Dubstep.wav
Pre-gap length 0:00:02.00
Peak level 100.0 % Extraction speed 2.1 X Track quality 100.0 % Test CRC A2833718 Copy CRC A2833718 Track not present in AccurateRip database Copy OK
Track 19
Filename C:\EAC\Pipon Garcia Trio - Back To The Future - 2018 - FLAC - CD\19. Infinite Mystery.wav
Pre-gap length 0:00:02.00
Peak level 50.4 % Extraction speed 1.8 X Track quality 100.0 % Test CRC 8FF210DA Copy CRC 8FF210DA Track not present in AccurateRip database Copy OK
None of the tracks are present in the AccurateRip database
No errors occurred
End of status report
==== Log checksum BE72125C858D063BEE0AA89411CB102E8BBB513017DAF01AF9117DD791985512 ====

Содержание индексной карты (.CUE)

REM GENRE JazzREM DATE 2018REM DISCID 120BF213REM COMMENT "ExactAudioCopy v1.0b3"PERFORMER "Pipon Garcia"TITLE "Back to the Future"FILE "01 - Big Band.wav" WAVE TRACK 01 AUDIO TITLE "Big Band" PERFORMER "Pipon Garcia" INDEX 01 00:00:00 TRACK 02 AUDIO TITLE "Bad Radio" PERFORMER "Pipon Garcia" INDEX 00 04:06:55FILE "02 - Bad Radio.wav" WAVE INDEX 01 00:00:00 TRACK 03 AUDIO TITLE "Berimbau" PERFORMER "Pipon Garcia" INDEX 00 00:53:21FILE "03 - Berimbau.wav" WAVE INDEX 01 00:00:00 TRACK 04 AUDIO TITLE "Fugue" PERFORMER "Pipon Garcia" INDEX 00 03:25:49FILE "04 - Fugue.wav" WAVE INDEX 01 00:00:00 TRACK 05 AUDIO TITLE "Marimba" PERFORMER "Pipon Garcia" INDEX 00 01:54:18FILE "05 - Marimba.wav" WAVE INDEX 01 00:00:00 TRACK 06 AUDIO TITLE "Bongos" PERFORMER "Pipon Garcia" INDEX 00 02:43:11FILE "06 - Bongos.wav" WAVE INDEX 01 00:00:00 TRACK 07 AUDIO TITLE "Melodica" PERFORMER "Pipon Garcia" INDEX 00 04:32:39FILE "07 - Melodica.wav" WAVE INDEX 01 00:00:00 TRACK 08 AUDIO TITLE "L12" PERFORMER "Pipon Garcia" INDEX 00 02:47:02FILE "08 - L12.wav" WAVE INDEX 01 00:00:00 TRACK 09 AUDIO TITLE "Sounds Line" PERFORMER "Pipon Garcia" INDEX 00 01:46:73FILE "09 - Sounds Line.wav" WAVE INDEX 01 00:00:00 TRACK 10 AUDIO TITLE "Miss to Fear" PERFORMER "Pipon Garcia" INDEX 00 06:19:71FILE "10 - Miss to Fear.wav" WAVE INDEX 01 00:00:00 TRACK 11 AUDIO TITLE "C50 Complex 4" PERFORMER "Pipon Garcia" INDEX 00 01:33:59FILE "11 - C50 Complex 4.wav" WAVE INDEX 01 00:00:00 TRACK 12 AUDIO TITLE "2 Steps" PERFORMER "Pipon Garcia" INDEX 00 04:02:52FILE "12 - 2 Steps.wav" WAVE INDEX 01 00:00:00FILE "13 - New Ragga.wav" WAVE TRACK 13 AUDIO TITLE "New Ragga" PERFORMER "Pipon Garcia" INDEX 01 00:00:00 TRACK 14 AUDIO TITLE "Bubble" PERFORMER "Pipon Garcia" INDEX 00 02:51:11FILE "14 - Bubble.wav" WAVE INDEX 01 00:00:00 TRACK 15 AUDIO TITLE "Funky KP" PERFORMER "Pipon Garcia" INDEX 00 03:38:57FILE "15 - Funky KP.wav" WAVE INDEX 01 00:00:00 TRACK 16 AUDIO TITLE "Happy End" PERFORMER "Pipon Garcia" INDEX 00 00:27:23FILE "16 - Happy End.wav" WAVE INDEX 01 00:00:00 TRACK 17 AUDIO TITLE "Bamboo" PERFORMER "Pipon Garcia" INDEX 00 02:27:48FILE "17 - Bamboo.wav" WAVE INDEX 01 00:00:00 TRACK 18 AUDIO TITLE "African Dubstep" PERFORMER "Pipon Garcia" INDEX 00 01:29:73FILE "18 - African Dubstep.wav" WAVE INDEX 01 00:00:00 TRACK 19 AUDIO TITLE "Infinite Mystery" PERFORMER "Pipon Garcia" INDEX 00 03:08:34FILE "19 - Infinite Mystery.wav" WAVE INDEX 01 00:00:00

Об исполнителе (группе)

« Philippe Garcia est un agitateur qui se plaît à brouiller les pistes en jouant de la musique comme un drôle d’enfant » dit de lui son vieux compagnon Erik Truffaz. Un mutant des drums, avant-gardiste inspiré, aujourd’hui devenu une figure emblématique de l’expérimentation créative qui s’est toujours servi de la pure tradition jazzistique pour aller vers des hybridations qu’il maîtrise en sorcier. Il faut dire que depuis plus de vingt cinq ans, « Pipon » de son surnom aura été aux premières loges de nombreux projets qui lui ont conféré un statut certain pour ne pas dire une stature certaine.
Ce musicien hors-norme de formation classique s’est orienté vers le jazz dès son plus jeune age et a collaboré avec les plus grands dès les années 80 : Don Cherry, Barre Philips, ou encore avec Sezen Aksu ou Kayahan durant ses six années passées en Turquie.
Puis il sera de ceux qui ont entamé la fusion entre le jazz et l’electro-drum & bass, comme il le confirmera avec la création de Cosmik Connection en 1995. Il fut aussi de l’aventure pour créer le bouillonnant Collectif Mu et le Crescent Jazz Club à Mâcon. Par ailleurs de plus en plus sollicité, le batteur-compositeur et roi du sample jouera aux côtés de Truffaz, de Michel Benita ou de Paolo Fresu pour ne citer que quelques grands noms de la galaxie jazzistique, avant de se reconvertir lui-même en étonnant Kptn Planet.
Toujours aussi actif et inventif, Pipon Garcia se présente désormais en trio au côté de deux autres grandes figures musicales. Avec Thibaud Soulas, un artiste complet qui fut d’abord trompettiste avant de devenir contrebassiste et de mettre son talent au service d’Enrico Rava, de La Velle ou de Stéphane Belmondo. A l’instar de Pipon Garcia, son éclectisme le pousse à s’intéresser aussi bien à la musique classique qu’aux musiques du monde (projet en Bulgarie avec Mario Stantchev, au Mali avec Imperial Quartet) tout en travaillant sur le chant et les arts circassiens. A cette redoutable paire rythmique s’adjoint une voix incontournable parmi les chanteurs contemporains, avec Sir Jean, le charismatique performer d’origine wolof qui a marqué de son flow légendaire les principaux groupes de dub et d’afro-electro de ces vingt dernières années, de Meï Teï Shô au Peuple de l’Herbe, d’Ezekiel à Zenzile en passant par Brain Damage. Une dream-team pour sculpter le chaos originel et donner une dimension contemporaine et toujours très urbaine aux compositions de Pipon Garcia sur lesquelles viennent se greffer les textes engagés -voire enragés- de Sir Jean. Ses incantations envoûtantes et mystiques plannent sur les samples et rythmes cosmiques du batteur alternant jazz des années 50 au broken beat futuriste, swing survolté aux atmosphères plus intimes.
Toujours aussi actif et inventif en gardant le pied régional, Pipon Garcia se présente désormais en trio avec deux autres grandes figures du cru. Avec Tibo Soulas, un artiste complet qui fut d’abord trompettiste avant de devenir contrebassiste et de mettre son talent au service d’Enrico Rava, de La Velle ou de Stéphane Belmondo. A l’instar de Pipon Garcia, son éclectisme le pousse à s’intéresser aussi bien à la musique classique qu’aux musiques du monde (projet en Bulgarie avec Mario Stantchev, au Mali avec Imperial Quartet) tout en travaillant sur le chant et les arts circassiens. A cette redoutable paire rythmique s’adjoint une voix incontournable parmi les chanteurs du circuit, avec Sir Jean (alias Jean Gomis), le charismatique performer d’origine wolof qui a marqué de son flow légendaire les principaux groupes de dub et d’afro-electro de ces vingt dernières années, de Meï Teï Shô au Peuple de l’Herbe, d’Ezekiel à Zenzile en passant par Brain Damage, comme encore aujourd’hui avec le NMB Brass Band, une afro-beat expérience présentée au Rhino l’an dernier. Autant dire une dream-team de pointures pour sculpter le chaos originel et donner une dimension contemporaine et toujours très urbaine aux compos electro de Pipon Garcia sur lesquelles viennent se greffer les textes engagés –voire enragés- du tribal Sir Jean. Ses incantations envoûtantes et mystiques lâchées sur les samples fantasmagoriques du batteur alternent de la furia survoltée à l’intimisme planant. Une performance forcément décoiffante qui ravira les fidèles curieux.


[geo-torrent.biz]_t_5621344.torrent
Torrent: Registered ·  [ 2018-10-02 22:25 ] ·  5e6295689f304aceeb24177b0932747ad966cd9b

13 KB

Status: checked
Completed: 0 times
Size: 289 MB
Rating: 
(Votes: 0)
Say thanks: 0  Thanks
Похожие темы
[Profile]    [PM]
Display posts from previous:    
Reply to topic

The time now is: Today 06:59

All times are GMT + 7 Hours



You cannot post new topics in this forum
You cannot reply to topics in this forum
You cannot edit your posts in this forum
You cannot delete your posts in this forum
You cannot vote in polls in this forum
You cannot attach files in this forum
You can download files in this forum