[TR24][OF] Foot Hair - Foot Hair - 2015 (Noise Rock, Sludge Metal, No Wave, Punk)

Ответить на тему
Статистика раздачи [Обновить пиров]
Размер:  327 MB   |    Зарегистрирован:  1 месяц 19 дней   |    Скачан:  0 раз

Полного источника не было: Никогда

 
   
 
 
 
Автор Сообщение

torrentc.info

Создавать темы 02-Окт-2018 22:26

[Цитировать]

Foot Hair / Foot Hair
Формат файла записи/Источник записи: [TR24][OF]
Наличие водяных знаков: Нет
Год издания/переиздания диска: 2015
Жанр: Noise Rock, Sludge Metal, No Wave, Punk
Издатель (лейбл): Box Records – BoxRec011
Продолжительность: 00:26:07
Наличие сканов в содержимом раздачи: Только обложка альбома
Треклист:
1. King of Scum (04:19)
2. Send in the Dogs (02:11)
3. I See You (04:14)
4. Take That (01:47)
5. Cool Runnings (03:36)
6. Send Us Your Blood (04:05)
7. Outlander (05:57)
Формат файла: FLAC (*.flac)
Тип рипа: tracks
Разрядность: 24/44,1
Формат файла: WAV (flac.ape.wv)
Количество каналов: 2.0
Источник (релизер): Red, psychoboy -> BC-

Лог проверки качества

foobar2000 1.1.5 / Замер динамического диапазона (DR) 1.1.1Дата отчёта: 2018-09-26 14:21:48
--------------------------------------------------------------------------------Анализ: Foot Hair / Foot Hair--------------------------------------------------------------------------------
DR Пики RMS Продолжительность трека--------------------------------------------------------------------------------DR4 -0.12 дБ -4.96 дБ 4:19 01-King Of ScumDR5 -0.12 дБ -5.14 дБ 2:11 02-Send In The DogsDR4 -0.12 дБ -5.05 дБ 4:14 03-I See YouDR5 -0.12 дБ -5.28 дБ 1:47 04-Take ThatDR5 -0.12 дБ -4.95 дБ 3:36 05-Cool RunningsDR5 -0.12 дБ -5.15 дБ 4:05 06-Send Us Your BloodDR5 -0.12 дБ -5.16 дБ 5:57 07-Outlander--------------------------------------------------------------------------------
Количество треков: 7Реальные значения DR: DR5
Частота: 44100 ГцКаналов: 2Разрядность: 24Битрейт: 1698 кбит/сКодек: FLAC================================================================================

Скриншот спектра частот

Об исполнителе (группе)

Foot Hair
Profile:
Noise rock from Newcastle Upon Tyne, UK.
Sites:
Bandcamp
Members:
Matthew Atkinson, Peter McGee,
Sam Booth, Thomas Hopkin, Tom Haggis


[torrentc.info]_t_5619115.torrent
Торрент: Зарегистрирован ·  [ 2018-10-02 22:25 ] ·  45561ed5b1419a3b9764c854e01f1f2d99c9a0bb

14 KB

Статус: проверено
Скачан: 0 раз
Размер: 327 MB
Оценка: 
(Голосов: 0)
Сказали спасибо: 0  Спасибо
Похожие темы
[Профиль]    [ЛС]
Показать сообщения:    
Ответить на тему

Текущее время: Сегодня 18:12

Часовой пояс: GMT + 7



Вы не можете начинать темы
Вы не можете отвечать на сообщения
Вы не можете редактировать свои сообщения
Вы не можете удалять свои сообщения
Вы не можете голосовать в опросах
Вы не можете прикреплять файлы к сообщениям
Вы можете скачивать файлы