Все наши дети / All My Children / Minna waga ko (Миёдзи Иэки / Miyoji Ieki) [1963, Япония, драма, DVDRip] + Sub Rus + Original Jpn

Ответить на тему
Статистика раздачи [Обновить пиров]
Размер:  1 GB   |    Зарегистрирован:  1 месяц 19 дней   |    Скачан:  0 раз

Полного источника не было: Никогда

 
   
 
 
 
Автор Сообщение

torrentc.info

Создавать темы 30-Сен-2018 21:28

[Цитировать]

Все наши дети / All My Children / Minna waga ko / みんなわが子
Страна: Япония
Жанр: драма
Год выхода: 1963
Продолжительность: 01:33:24
Перевод: Субтитры русские - [url=tracker.php?rid=6473541]дед_сто_лет[/url]©
Оригинальная аудиодорожка: японский
Режиссер: [url=tracker.php?nm=Miyoji%20Ieki]Миёдзи Иэки / Miyoji Ieki[/url]
В ролях: Хитоми НАКАХАРА, Ранко АКАГИ, Мари ЦУДЗИИ, Таниэ КИТАБАЯСИ, Сумио ТАКАЦУ, Масакадзу КУВАЯМА, Накадзиро ТОМИТА, Ёси ООМОРИ, Тиэко МИСАКИ, Ёсико САКУРАИ, Ёсико СИМАДА, Томоко МАЯМА, Акико ТАКО, Тоёко КАТО, Митио ХИНО, Фумио ООМАТИ, Масаёси МИЯСАКА, Кэйити СИМАДА, Масао НАГАВА, Муцухико ЦУРУМАРУ, Тамико МИЯГИ, Тиэ ИВАСАКИ, Кимико ХИГАНДА, Тосико ТАКАГИ, Миэко ЯМАДА, Акико ТОГАВА
Описание: Фильм основан на реальных событиях, которые описаны в дневниках эвакуации начальной школы Гэккохара из Токио. Перед самым окончанием войны под угрозой бомбардировок детей отлучают от родителей и отправляют подальше от столицы. Учителя внушают своим воспитанникам, что вся страна встала на их защиту, и люди до последней капли крови будут бороться за свою страну. Но жизнь становится всё труднее, и не так легко сохранить самообладание и веру в хорошее будущее.©
> > > > > > >
Качество видео: DVDRip
Формат файла: AVI
Видео: 720x320 (2.25:1), 23.976 fps, XviD build 50 ~1331 kbps avg, 0.24 bit/pixel
Аудио: 48 kHz, MPEG Layer 3, 2 ch, ~192.00 kbps avg
Формат файла субтитров: softsub (SRT)
Доп. информация о субтитрах: дед_сто_лет

Пример субтитров

460
00:36:52,477 --> 00:36:55,321
Это так? Ты так сильно хочешь домой?
461
00:36:55,447 --> 00:36:57,654
Нет, я не хочу уезжать.
462
00:36:57,916 --> 00:37:02,592
Хорошо! Это твоё решение. Раз так,
постарайся выдержать до конца!
463
00:37:03,621 --> 00:37:06,795
Я потом попрошу жену, чтобы
приготовила для тебя угощение.
464
00:37:10,562 --> 00:37:12,473
Сестра, ты здорова?
465
00:37:12,964 --> 00:37:16,411
- Я рад, что ничего серьезного.
- Терпеть этого не могу.
466
00:37:16,634 --> 00:37:20,480
- Она притворяется.
- Просто хочет получить угощение.
467
00:37:20,672 --> 00:37:21,872
Не смей так говорить!
468
00:37:21,873 --> 00:37:23,774
Я тоже хочу быть больным.
469
00:37:23,775 --> 00:37:25,721
Ты просто воруешь угощение!
470
00:37:26,578 --> 00:37:29,286
Нет! Мне ничего не надо!
471
00:37:56,341 --> 00:38:05,853
Мы с тобою братья,
как эти деревья сакуры.
472
00:38:06,618 --> 00:38:15,595
Мы пышно цветем в нашем отряде пилотов.
473
00:38:16,394 --> 00:38:25,747
Когда цветы раскрываются,
они знают, что должны упасть.
474
00:38:26,171 --> 00:38:34,852
Мы тоже с радостью упадем,
ради нашей страны.
475
00:38:35,914 --> 00:38:44,732
Мы с тобою братья,
как эти деревья сакуры.
476
00:38:45,623 --> 00:38:53,769
Мы пышно цветем в нашем отряде пилотов.
477
00:38:54,466 --> 00:38:56,377
Разрешите войти!
478
00:39:05,310 --> 00:39:07,722
- Это пончик для тебя!
- Как здорово!
479
00:39:08,179 --> 00:39:10,853
Он посыпан сахаром. Очень вкусно.
480
00:39:11,316 --> 00:39:12,483
Где ты его взял?
481
00:39:12,484 --> 00:39:16,320
Кёко приготовила сегодня прощальный ужин.
И сделала для нас пончики.
482
00:39:16,321 --> 00:39:21,771
Братья завтра утром уезжают.
И хотели сегодня хорошо повеселиться.
483
00:39:22,260 --> 00:39:24,061
Прощальный ужин?

MediaInfo

GeneralComplete name : C:\Torrents\[ASIA]\Minna.waga.ko(1963)Miyoji.Ieki\Minna.waga.ko(1963)Miyoji.Ieki.aviFormat : AVIFormat/Info : Audio Video InterleaveFile size : 1.00 GiBDuration : 1h 33mnOverall bit rate : 1 533 KbpsWriting application : VirtualDubMod 1.5.4.1 (build 2178/release)Writing library : VirtualDub-MPEG2 build 24600/release
VideoID : 0Format : MPEG-4 VisualFormat profile : Advanced Simple@L5Format settings, BVOP : 1Format settings, QPel : NoFormat settings, GMC : No warppointsFormat settings, Matrix : CustomCodec ID : XVIDCodec ID/Hint : XviDDuration : 1h 33mnBit rate : 1 331 KbpsWidth : 720 pixelsHeight : 320 pixelsDisplay aspect ratio : 2.25:1Frame rate : 23.976 fpsColor space : YUVChroma subsampling : 4:2:0Bit depth : 8 bitsScan type : ProgressiveCompression mode : LossyBits/(Pixel*Frame) : 0.241Stream size : 890 MiB (87%)Writing library : XviD 1.2.1 (UTC 2008-12-04)
AudioID : 1Format : MPEG AudioFormat version : Version 1Format profile : Layer 3Mode : Joint stereoMode extension : MS StereoCodec ID : 55Codec ID/Hint : MP3Duration : 1h 33mnBit rate mode : ConstantBit rate : 192 KbpsChannel(s) : 2 channelsSampling rate : 48.0 KHzCompression mode : LossyStream size : 128 MiB (13%)Alignment : Aligned on interleavesInterleave, duration : 42 ms (1.00 video frame)Interleave, preload duration : 504 msWriting library : LAME3.98rEncoding settings : -m j -V 4 -q 2 -lowpass 18.6 -b 192

Скриншот c названием фильма



[torrentc.info]_t_5621198.torrent
Торрент: Зарегистрирован ·  [ 2018-09-30 21:28 ] ·  97ea2afbfb29820b572c130a0b8708dba2b3cf32

11 KB

Статус: проверено
Скачан: 0 раз
Размер: 1 GB
Оценка: 
(Голосов: 0)
Сказали спасибо: 0  Спасибо
Похожие темы
[Профиль]    [ЛС]
Показать сообщения:    
Ответить на тему

Текущее время: Сегодня 15:04

Часовой пояс: GMT + 7



Вы не можете начинать темы
Вы не можете отвечать на сообщения
Вы не можете редактировать свои сообщения
Вы не можете удалять свои сообщения
Вы не можете голосовать в опросах
Вы не можете прикреплять файлы к сообщениям
Вы можете скачивать файлы