Средь шумного бала... (Лариса Моспан-Шульга) [2014, Украина, театрализованный вечер романса, TVRip] Киевский муниципальный академический театр оперы и балета для детей и юношества

Ответить на тему
Статистика раздачи [Обновить пиров]
Размер:  1.09 GB   |    Зарегистрирован:  1 месяц 19 дней   |    Скачан:  0 раз

Полного источника не было: Никогда

 
   
 
 
 
Автор Сообщение

torrentc.info

Создавать темы 30-Сен-2018 17:13

[Цитировать]

Средь шумного бала... Название театра: Киевский муниципальный академический театр оперы и балета для детей и юношества.
Год выхода: 2014.
Страна: Украина .
Жанр: театрализованный вечер романса.
Продолжительность: 01:26:46.
Язык: Русский.
Режиссёры: Лариса Моспан-Шульга, Жанна Бебешко.
Исполняют:
Ирина Ладина, Геннадий Кабка, Алла Пригара, Олеся Биласюк, Александр Харламов, Любовь Канюка, Роман Смоляр, Татьяна Странченко, Татьяна Масан, Евгений Малофеев, Алексей Жмуденко, Виктория Осадчук, Наталья Пелих, Геннадий Мельник (скрипач).
О спектакле:
«Романс - удивительное сочетание музыки и поэзии - всегда полон очарования и светлой грусти. Встреча с ним каждый раз приятная и желанная. В романсах отражено разнообразную гамму душевного состояния человека, ведь здесь звучат слова о любви, ревности, неразделенные чувства, разлуку - о том, что волнует каждого из нас. Все это оживет на сцене и наш вечер подарит Вам прекрасное настроение ».
Лариса Моспан-Шульга
Режиссер концерта Лариса Моспан-Шульга в яркой форме бала представила своеобразный театр романса. С первыми тактами музыки на сцене будто оживает красочное живописное полотно. Вальсируют пары, приезжают и уезжают гости, происходят неожиданные встречи и бурные прощания, словом бушуют страсти.
Каждый из 14 солистов, занятых в спектакле, имеет свою роль в ее драматургии. Виртуозное владение голосом сочетается с актерским перевоплощением. Их герои шутят, влюбляются, грустят и страдают, звучат пламенные исповеди и любовные мольбы.
Произведения, написанных разными авторами в разное время, стали своеобразной антологией романса. Старинный «Я помню вальса звук прелестный» в прекрасном исполнении заслуженной артистки Украины Натальи Пелых (она же хозяйка бала) начинает и завершает программу. Звучат классические романсы А. Варламова, П. Булахова, А. Алябьева, А. Гурилева, жемчужины лирики Чайковского, романсы начала 20 века и произведения, написанные М. Таривирдиевым и В. Гаврилиным во второй половине столетия. Не обошлось в программе и без таких ожидаемых и популярных шлягеров как «Калитка», «Очи черные», «Только раз ...», «Хризантемы», «Не уезжай ты, мой голубчик», «Кони-звери». Своеобразной кульминацией являются романсы нашего земляка А. Вертинского в исполнении Татьяны Масан, а также романсы на стихи М. Цветаевой, которые не просто мастерски поет - проживает на сцене лауреат Международного конкурса Виктория Осадчук.
В вечере романса участвуют лауреаты международных конкурсов Любовь Канюка, Геннадий Кабка, Михаил Ракосий, Ольга Фомичева, Мирослава Гаврилюк, Ирина Ладина, Олеся Биласюк, Алла Пригара, Евгений Малофеев, Александр Харламов, Назар Якобенчук, являющийся музыкальным руководителем программы.
Творческими единомышленниками режиссера стали постановщики пластики народная артистка Украины Татьяна Боровик и Иван Козлов и это способствовало раскованности певцов, динамичному развитию сценического действия. Концертмейстеры Мария Поляшова и лауреат Международного конкурса Юлия Ященко не только исполняют партию фортепиано, но и являются участниками театрального действа вместе со скрипачом Геннадием Мельником.

Дополнительная информация:
Выпущено: Киевский муниципальный академический театр оперы и балета для детей и юношества, ГТРК "Культура" (Украина).
Режиссёр спектакля: Лариса Моспан-Шульга.
Музыкальный руководитель программы: Назар Якобенчук.
Постановщики пластики: народная артистка Украины Татьяна Боровик, Иван Козлов.
Режиссер, который ведет спектакль: Патимат Мирзаева.
Партию фортепиано исполняют: Мария Полешова, Юлия Ященко, Любовь Орлова.
Скрипач: Геннадий Мельник.
Премьера спектакля состоялась 15 марта 2013 года.
Режиссёр телеверсии: Жанна Бебешко.
Операторы: Александр Скудар, Сергей Карапищенко, Александр Ящиковский.

О спектакле.

Рип sharky.

Качество видео:...TVRip
Формат файла:.................AVI
Видео:..704x528 (1.33:1), 25 fps, XviD build 47 ~1596 kbps avg, 0.17 bit/pixel
Аудио:..48 kHz, AC3 Dolby Digital, 2/0 (L,R) ch, ~192 kbps

Отчет MediaInfo

Общее
Полное имя : Sred'.shumnogo.bala_Kievskij.MATOiBdDiYu.2014.XviD.TVRip.fenixclub.avi
Format : AVI
Format/Info : Audio Video Interleave
File size : 1.09 GiB
Duration : 1h 26mn
Overall bit rate : 1 798 Kbps
Writing application : VirtualDubMod 1.5.10.2 (build 2540/release)
Writing library : VirtualDubMod build 2540/release
Video
ID : 0
Format : MPEG-4 Visual
Format profile : Advanced Simple@L5
Format settings, BVOP : 1
Format settings, QPel : No
Format settings, GMC : No warppoints
Format settings, Matrix : Default (H.263)
Codec ID : XVID
Codec ID/Hint : XviD
Duration : 1h 26mn
Bit rate : 1 597 Kbps
Width : 704 pixels
Height : 528 pixels
Display aspect ratio : 4:3
Frame rate : 25.000 fps
Color space : YUV
Chroma subsampling : 4:2:0
Bit depth : 8 bits
Scan type : Progressive
Compression mode : Lossy
Bits/(Pixel*Frame) : 0.172
Stream size : 991 MiB (89%)
Writing library : XviD 1.2.0.dev47 (UTC 2006-11-01)
Audio
ID : 1
Format : AC-3
Format/Info : Audio Coding 3
Mode extension : CM (complete main)
Format settings, Endianness : Big
Codec ID : 2000
Duration : 1h 26mn
Bit rate mode : Constant
Bit rate : 192 Kbps
Channel(s) : 2 channels
Channel positions : Front: L R
Sampling rate : 48.0 KHz
Compression mode : Lossy
Stream size : 119 MiB (11%)
Alignment : Split accross interleaves
Interleave, duration : 40 ms (1.00 video frame)
Interleave, preload duratio : 500 ms.

Скриншоты


Альтернативный хост




[torrentc.info]_t_5116122.torrent
Торрент: Зарегистрирован ·  [ 2018-09-30 17:11 ] ·  6e7ec8114fe5972f0703089a9efb76d8422506cc

11 KB

Статус: проверено
Скачан: 0 раз
Размер: 1.09 GB
Оценка: 
(Голосов: 0)
Сказали спасибо: 0  Спасибо
Похожие темы
[Профиль]    [ЛС]
Показать сообщения:    
Ответить на тему

Текущее время: Сегодня 14:52

Часовой пояс: GMT + 7



Вы не можете начинать темы
Вы не можете отвечать на сообщения
Вы не можете редактировать свои сообщения
Вы не можете удалять свои сообщения
Вы не можете голосовать в опросах
Вы не можете прикреплять файлы к сообщениям
Вы можете скачивать файлы