Не каждый день бывает 30 лет! / TV5 Quebec Canada. On n\'a pas tous les jours 30 ans! (Марио Руло / Mario Rouleau) [2018, Канада, документальный, DVB] Original (Fra) + Sub (Rus, Eng, Fra, Deu)

Ответить на тему
Статистика раздачи [Обновить пиров]
Размер:  2.98 GB   |    Зарегистрирован:  29 дней   |    Скачан:  0 раз

Полного источника не было: Никогда

 
   
 
 
 
Автор Сообщение

torrentc.info

Создавать темы 20-Сен-2018 22:09

[Цитировать]

Не каждый день бывает 30 лет!
TV5 Quebec Canada. On n'a pas tous les jours 30 ans!-[img=right]https://i6.imageban.ru/out/2018/09/07/09a4e289101ac...ab5cee.png[/img]Дата/Год выхода: 2018
Страна: Канада
Жанр: документальный
Продолжительность: 02:07:59
Перевод: Субтитры (русский перевод И.Безлюдной, ECLAIR)
Русские субтитры: есть
Формат файла субтитров: prerendered (IDX+SUB), softsub (SRT)
Доп. информация о субтитрах: русские, немецкие, нидерландские, румынские, испанские - (IDX+SUB); английские, французские - (SRT)
Оригинальная аудиодорожка: французский
Режиссер: Марио Руло / Mario Rouleau
В ролях: Мишель Дрюкер, Мирей Дюма, Шанталь Ламар, Франсуа Бюнель, Ив Биго, Франсуа де Бригод, Франсуаза Жоли, Мишель Черутти, Филипп Дерозьер, Филипп Гугле
Телеканал: TV5MONDE Europe
Описание: TV5 Québec Canada празднует свой день рождения! 30 лет встреч и лучших моментов бельгийского, канадского, французского, швейцарского и других каналов франкоязычного телевидения. Чтобы поделиться воспоминаниями и забавными ситуациями Софи Фьюрон пригласила 10 популярных телеведущих, которые с помощью архивных кадров расскажут о самых незабываемых моментах 30-летней истории телеканала.
Доп. информация: Hot Bird (13.0°E) DVB-S

Качество видео: DVB
Формат файла: MKV
Видео: MPEG Video 2, 720x576@1024x576 (16:9), 25 fps, ~3079 kbps avg, 0.297 bit/pixel
Аудио: MPEG Audio 2, 2 ch, 48 kHz, 192 kbps - французский

MediaInfo

GeneralUnique ID : 332073206482232111440917772843913025388 (0xF9D2F9243E54CC5FBAB0CE3D6D2F976C)Complete name : [apreder]On_n'a_pas_tous_les_jours_30_ans(2018)DVB.mkvFormat : MatroskaFormat version : Version 2File size : 2.98 GiBDuration : 2 h 7 minOverall bit rate mode : VariableOverall bit rate : 3 337 kb/sMovie name : TV5 Quebec Canada. On n'a pas tous les jours 30 ans!Released date : 2018-00-00Encoded date : UTC 2018-09-07 15:00:37Writing application : mkvmerge v26.0.0 ('In The Game') 64-bitWriting library : libebml v1.3.6 + libmatroska v1.4.9Cover : YesAttachments : cover.png / small_cover.pngDIRECTOR : Mario RouleauGENRE : Talk-ShowKEYWORDS : TorrentcLAW_RATING : 12+
VideoID : 1Format : MPEG VideoFormat version : Version 2Format profile : Main@MainFormat settings : CustomMatrix / BVOPFormat settings, BVOP : YesFormat settings, Matrix : CustomFormat settings, GOP : VariableFormat settings, picture structure : FrameCodec ID : V_MPEG2Codec ID/Info : MPEG 1 or 2 VideoDuration : 2 h 7 minBit rate mode : VariableBit rate : 3 079 kb/sWidth : 720 pixelsHeight : 576 pixelsDisplay aspect ratio : 16:9Frame rate mode : ConstantFrame rate : 25.000 FPSStandard : PALColor space : YUVChroma subsampling : 4:2:0Bit depth : 8 bitsScan type : InterlacedScan order : Top Field FirstCompression mode : LossyBits/(Pixel*Frame) : 0.297Time code of first frame : 00:00:00:00Time code source : Group of pictures headerStream size : 2.75 GiB (92%)Default : YesForced : No
AudioID : 2Format : MPEG AudioFormat version : Version 1Format profile : Layer 2Format settings : Joint stereo / Intensity Stereo + MS StereoCodec ID : A_MPEG/L2Codec ID/Hint : MP2Duration : 2 h 7 minBit rate mode : ConstantBit rate : 192 kb/sChannel(s) : 2 channelsSampling rate : 48.0 kHzCompression mode : LossyStream size : 176 MiB (6%)Language : FrenchDefault : YesForced : No
Text #1ID : 3Format : VobSubCodec ID : S_VOBSUBCodec ID/Info : Picture based subtitle format used on DVDsLanguage : RussianDefault : NoForced : No
Text #2ID : 4Format : UTF-8Codec ID : S_TEXT/UTF8Codec ID/Info : UTF-8 Plain TextLanguage : EnglishDefault : NoForced : No
Text #3ID : 5Format : UTF-8Codec ID : S_TEXT/UTF8Codec ID/Info : UTF-8 Plain TextLanguage : FrenchDefault : NoForced : No
Text #4ID : 6Format : VobSubCodec ID : S_VOBSUBCodec ID/Info : Picture based subtitle format used on DVDsLanguage : GermanDefault : NoForced : No
Text #5ID : 7Format : VobSubCodec ID : S_VOBSUBCodec ID/Info : Picture based subtitle format used on DVDsLanguage : DutchDefault : NoForced : No
Text #6ID : 8Format : VobSubCodec ID : S_VOBSUBCodec ID/Info : Picture based subtitle format used on DVDsLanguage : RomanianDefault : NoForced : No
Text #7ID : 9Format : VobSubCodec ID : S_VOBSUBCodec ID/Info : Picture based subtitle format used on DVDsLanguage : SpanishDefault : NoForced : No
- [4'326]


[torrentc.info]_t_5610686.torrent
Торрент: Зарегистрирован ·  [ 2018-09-20 22:06 ] ·  608cc69ecfc497c4861226d90e93e861a98d3143

30 KB

Статус: проверено
Скачан: 0 раз
Размер: 2.98 GB
Оценка: 
(Голосов: 0)
Сказали спасибо: 0  Спасибо
Похожие темы
[Профиль]    [ЛС]
Показать сообщения:    
Ответить на тему

Текущее время: Сегодня 20:27

Часовой пояс: GMT + 7



Вы не можете начинать темы
Вы не можете отвечать на сообщения
Вы не можете редактировать свои сообщения
Вы не можете удалять свои сообщения
Вы не можете голосовать в опросах
Вы не можете прикреплять файлы к сообщениям
Вы можете скачивать файлы