Азовский историко-археологический и палеонтологический музей-заповедник - 100 лет / Первый век Азовского заповедника [Дон-ТР] (Любовь Суркова) [2017, Док. Искусство. История, DVB]

Ответить на тему
Статистика раздачи [Обновить пиров]
Размер:  229 MB   |    Зарегистрирован:  1 месяц 25 дней   |    Скачан:  0 раз

Полного источника не было: Никогда

 
   
 
 
 
Автор Сообщение

torrentc.info

Создавать темы 20-Сен-2018 22:09

[Цитировать]

Азовский историко-археологический и палеонтологический музей-заповедник - 100 лет / Первый век Азовского заповедника [Дон-ТР]
Дата/Год выхода: 2017
Страна: Россия
Жанр: Док. Искусство. История
Продолжительность: 00:10:10
Перевод: Не требуется
Русские субтитры: нет
Режиссер: Любовь Суркова
Телеканал: Россия-24 - Дон-ТР
Описание: Хранителем богатейшей истории города является Азовский краеведческий музей. Это музейный комплекс, расположенный в прекрасном здании бывшей городской управы и трех новых корпусах. Филиалы: "Пороховой погреб", дом-музей Р.Л.Самойловича, выставочный зал "Меценат".В музее хранятся и экспонируются обширные археологические коллекции эпохи бронзы, раннего железного века, средневековья; фото и письменных источников; собрания нумизматики, рукоделия, одежды и тканей XIX - начала XX вв., металлов, в том числе коллекция самоваров и изделий из меди. Музей располагает богатейшей на юге России коллекцией сарматского золота. Уникальные изделия, найденные в курганах, - золотые украшения, детали конской упряжи, золотая и серебряная посуда, оружие - являются ценностями мирового уровня. Самым популярным экспонатом музея является единственный в стране скелет слона-трогонтерия (4,5 м), возраст которого - 600 тысяч лет.
Группа:
Качество: DVB
Формат файла: TS/M2TS
Видео: MPEG4 Video (H264) 720x576, 16:9, 25fps, 2829Kbps
Аудио: MPEG Audio 48000Hz stereo 192kbps

MediaInfo

GeneralID : 1 (0x1)Complete name : Азовский историко-археологический и палеонтологический музей-заповедник - 100 лет [Дон-ТР] (2017).m2tsFormat : BDAVFormat/Info : Blu-ray VideoFile size : 229 MiBDuration : 10 min 9 sOverall bit rate mode : VariableOverall bit rate : 3 091 kb/s
VideoID : 4113 (0x1011)Menu ID : 1 (0x1)Format : AVCFormat/Info : Advanced Video CodecFormat profile : Main@L3.0Format settings, CABAC : YesFormat settings, ReFrames : 4 framesFormat settings, GOP : M=4, N=28Codec ID : 27Duration : 10 min 9 sBit rate : 2 768 kb/sWidth : 720 pixelsHeight : 576 pixelsDisplay aspect ratio : 16:9Frame rate : 25.000 FPSStandard : PALColor space : YUVChroma subsampling : 4:2:0Bit depth : 8 bitsScan type : MBAFFScan type, store method : Separated fieldsScan order : Top Field FirstBits/(Pixel*Frame) : 0.267Stream size : 206 MiB (90%)Color range : LimitedColor primaries : BT.601 PALTransfer characteristics : BT.470 System B, BT.470 System GMatrix coefficients : BT.601
AudioID : 4352 (0x1100)Menu ID : 1 (0x1)Format : MPEG AudioFormat version : Version 1Format profile : Layer 2Codec ID : 4Duration : 10 min 9 sBit rate mode : ConstantBit rate : 192 kb/sChannel(s) : 2 channelsSampling rate : 48.0 kHzCompression mode : LossyDelay relative to video : 17 msStream size : 13.9 MiB (6%)

Скриншоты

ДРУГИЕ ФИЛЬМЫ О РОСТОВЕ-НА-ДОНУ И РОСТОВСКОЙ ОБЛАСТИ: Под спойлером в раздаче


[torrentc.info]_t_5613076.torrent
Торрент: Зарегистрирован ·  [ 2018-09-20 22:06 ] ·  1cfe57cf2c734a693c2503eec065516a6d047c75

18 KB

Статус: проверено
Скачан: 0 раз
Размер: 229 MB
Оценка: 
(Голосов: 0)
Сказали спасибо: 0  Спасибо
Похожие темы
[Профиль]    [ЛС]
Показать сообщения:    
Ответить на тему

Текущее время: Сегодня 12:30

Часовой пояс: GMT + 7



Вы не можете начинать темы
Вы не можете отвечать на сообщения
Вы не можете редактировать свои сообщения
Вы не можете удалять свои сообщения
Вы не можете голосовать в опросах
Вы не можете прикреплять файлы к сообщениям
Вы можете скачивать файлы