Военный парад и спортивно-молодежное шествие. День Независимости Республики Беларусь (День Республики) (Прямая трансляция) [03.07.2018, Парад, шествие, DVB]

Ответить на тему
Статистика раздачи [Обновить пиров]
Размер:  1.41 GB   |    Зарегистрирован:  2 месяца 26 дней   |    Скачан:  0 раз

Полного источника не было: Никогда

 
   
 
 
 
Автор Сообщение

torrentc.info

Создавать темы 20-Сен-2018 22:09

[Цитировать]

Военный парад и спортивно-молодежное шествие. День Независимости Республики Беларусь (День Республики) (Прямая трансляция)
Дата: 03.07.2018
Страна: Республика Беларусь
Жанр: Парад, шествие
Продолжительность: 01:15:18
Перевод: Не требуется
Телеканал: Беларусь 1

Описание: В Беларуси 3 июля отмечается День Независимости - главный праздник белорусской государственности. Решение о праздновании Дня Независимости 3 июля было принято в 1996 году - так проголосовали белорусы на республиканском референдуме 24 ноября. В декабре того же года декретом Президента Александра Лукашенко установлен государственный праздник - День Независимости Республики Беларусь (День Республики). Он отмечается в день освобождения Минска от немецко-фашистских захватчиков - 3 июля 1944 года. Впервые Беларусь отметила День Независимости в 1997 году.
Основное событие 3 июля в Минске — парад войск Минского гарнизона и массовое представление «Мой родны кут» (начало в 10.00) у стелы «Минск — город-герой». В завершение театрализованного шоу в небо поднимутся тысячи воздушных шаров и аэростат.
В парадном строю мы увидим сводный расчет женщин-военнослужащих. Как и воинов Народно-освободительной армии Китая, и ребят из кадетских училищ, специализированных лицеев и кадетских корпусов. Традиционно в параде участвуют военнослужащие вооруженных сил России.
Женский расчет впервые будет маршировать по Минскому проспекту. Красавицы готовятся пройтись строем на параде в честь Дня независимости. Признаются, им выпала большая честь.
Сначала по Минску пройдет механизированная колонна, а затем в небе появится авиация.
Всего в параде примут участие свыше трех тысяч военнослужащих и более 250 единиц боевой техники, в том числе танки Т-72Б, боевые машины пехоты, бронетранспортеры противотанковый ракетный комплекс БМ 9П149 «Штурм».
Воздушный эшелон парада будет представлен боевыми вертолетами Ми-8МТВ-5, Ми-24, истребителями МиГ-29, штурмовиками Су-25, военно-транспортными самолетами Ил-76, Ан-26, учебно-боевыми самолетами Як-130 и учебно-тренировочными самолетами Л-39.
В параде в честь Дня независимости Беларуси примут участие российские истребители-бомбардировщики Су-34 и истребители Су-30СМ. Гости парада смогут увидеть и российские разведывательно-ударные вертолеты Ка-52.
Доп. информация: Запись потока *.ts с наземного цифрового телеканала "Беларусь 1".

Подобные и связанные раздачи:

Беларусь - единственная Родина / Беларусь - адзiная Радзiма. День Независимости Республики Беларусь (День Республики) (Прямая трансляция) (2018)
http://Torrentc/forum/viewtopic.php?t=5591050
Торжественное собрание и праздничный концерт "Васильковое небо" посвященный Дню Независимости Республики Беларусь (Дню Республики) (2018)
http://Torrentc/forum/viewtopic.php?t=5591121
Военный парад и спортивно-молодежное шествие. День Независимости Республики Беларусь (День Республики) (Прямая трансляция) (03.07.2017)
http://Torrentc/forum/viewtopic.php?t=5424071
Торжественное собрание и праздничный концерт "Каб любіць Беларусь" посвященный Дню Независимости Республики Беларусь (Дню Республики) (2017)
http://Torrentc/forum/viewtopic.php?t=5423724
Гала-концерт "Беларусь маладая мая..." посвященный Дню Независимости (Дню Республики) (Прямая трансляция) (2017)
http://Torrentc/forum/viewtopic.php?t=5424966
Виват – Могилеву 750 лет (01.07.2017) / День Независимости Беларуси (День Республики), Могилев (03.07.2017)
http://Torrentc/forum/viewtopic.php?t=5427496
Военный парад и спортивно-молодежное шествие посвященные Дню Независимости Республики Беларусь (Дню Республики) / День Независимости Белоруссии (03.07.2011)
http://Torrentc/forum/viewtopic.php?t=3641277
Военный парад и спортивно-молодежное шествие посвященные Дню Независимости Республики Беларусь (Дню Республики) (03.07.2012)
http://Torrentc/forum/viewtopic.php?t=4115196
Военный парад и спортивно-молодежное шествие посвященные Дню Независимости Республики Беларусь (Дню Республики) (Прямая трансляция 03.07.2013)
http://Torrentc/forum/viewtopic.php?t=4479631
Военный парад и спортивно-молодежное шествие посвященные Дню Независимости Республики Беларусь (Дню Республики) (Прямая трансляция) (03.07.2014)
http://Torrentc/forum/viewtopic.php?t=4779869
Военный парад и спортивно-молодежное шествие. День Независимости Республики Беларусь (Прямая трансляция) (03.07.2016)
http://Torrentc/forum/viewtopic.php?t=5250520

Мои раздачи

[url=tracker.php?rid=9778909]http://Torrentc/forum/tracker.php?rid=9778909[/url]
Качество: DVB
Формат файла: TS
Видео кодек: H.264
Аудио кодек: MP2
Видео: MPEG4 Video (H264) 720(785)x576 (20:11) 25fps, 2 293 kb/s
Аудио: MPEG Audio 48000Hz stereo 256kbps
Сэмпл: https://www.sendspace.com/file/dc64py

MediaInfo

GeneralID : 1 (0x1)Complete name : D:\Новая земля 2\Концерты\День Победы и День Независимости\День Независимости 2018\Военный парад\Военный парад посвященный Дню Независимости Республики Беларусь 2018.tsFormat : MPEG-TSFile size : 1.41 GiBDuration : 1 h 15 minOverall bit rate mode : VariableOverall bit rate : 2 684 kb/s
VideoID : 101 (0x65)Menu ID : 1 (0x1)Format : AVCFormat/Info : Advanced Video CodecFormat profile : Main@L3Format settings : CABAC / 4 Ref FramesFormat settings, CABAC : YesFormat settings, ReFrames : 4 framesCodec ID : 27Duration : 1 h 15 minBit rate : 2 293 kb/sWidth : 720 pixelsHeight : 576 pixelsDisplay aspect ratio : 16:9Frame rate : 25.000 FPSStandard : PALColor space : YUVChroma subsampling : 4:2:0Bit depth : 8 bitsScan type : MBAFFScan type, store method : Interleaved fieldsScan order : Top Field FirstBits/(Pixel*Frame) : 0.221Stream size : 1.21 GiB (85%)Color range : LimitedColor primaries : BT.601 PALTransfer characteristics : BT.470 System B, BT.470 System GMatrix coefficients : BT.470 System B, BT.470 System G
AudioID : 102 (0x66)Menu ID : 1 (0x1)Format : MPEG AudioFormat version : Version 1Format profile : Layer 2Codec ID : 3Duration : 1 h 15 minBit rate mode : ConstantBit rate : 256 kb/sChannel(s) : 2 channelsSampling rate : 48.0 kHzFrame rate : 41.667 FPS (1152 SPF)Compression mode : LossyStream size : 138 MiB (10%)Language : English


[torrentc.info]_t_5591892.torrent
Торрент: Зарегистрирован ·  [ 2018-09-20 22:06 ] ·  22037da1b4b78bbd8be66ce6b437611f7f252922

15 KB

Статус: проверено
Скачан: 0 раз
Размер: 1.41 GB
Оценка: 
(Голосов: 0)
Сказали спасибо: 0  Спасибо
Похожие темы
[Профиль]    [ЛС]
Показать сообщения:    
Ответить на тему

Текущее время: Сегодня 22:03

Часовой пояс: GMT + 7



Вы не можете начинать темы
Вы не можете отвечать на сообщения
Вы не можете редактировать свои сообщения
Вы не можете удалять свои сообщения
Вы не можете голосовать в опросах
Вы не можете прикреплять файлы к сообщениям
Вы можете скачивать файлы