[VIDEO] Джентльмены удачи (Александр Серый) [1971, драма, комедия, криминал, детектив, BDRip] [MP4, 1280x]

Ответить на тему
Статистика раздачи [Обновить пиров]
Размер:  1.9 GB   |    Зарегистрирован:  2 месяца 27 дней   |    Скачан:  0 раз

Полного источника не было: Никогда

 
   
 
 
 
Автор Сообщение

torrentc.info

Создавать темы 19-Сен-2018 22:36

[Цитировать]

Джентльмены удачи- -Год выхода: 1971
Страна: СССР
Жанр: драма, комедия, криминал, детектив
Продолжительность: 01:26:43
Перевод: не требуется
Субтитры: нет
-Режиссер: Александр Серый-В ролях: Евгений Леонов, Георгий Вицин, Раднэр Муратов, Савелий Крамаров, Наталья Фатеева, Эраст Гарин, Николай Олялин, Анатолий Папанов, Павел Шпрингфельд, Любовь Соколова и другие .-Описание: Заведующему детсадом Трошкину фатально не повезло: он оказался как две капли воды похож на бандита по кличке «Доцент», похитившего уникальный шлем Александра Македонского.
Милиция внедряет добряка Трошкина в воровскую среду - и ему ничего не остается, кроме как старательно изображать своего двойника-злодея, путая всех окружающих. Со временем он настолько блестяще входит в роль, что сам начинает порой приходить в ужас. Между тем, жизни его угрожает смертельная опасность...
-[img]https://rating.kinopoisk.ru/44386.gif[/img] -Качество: BDRip / рип с Blu-ray disc 1080p
Формат файла: MP4
Видео кодек: H.264
Аудио кодек: AAC
Видео: 950x720 AR:1.32 3000 kbps 23.976 fps
Аудио: 2ch 48 kHz 128 kbps
-

Logx264

avs [info]: 950x720p 1:1 @ 24000/1001 fps (cfr)
x264 [info]: using SAR=1/1
x264 [info]: using cpu capabilities: MMX2 SSE2Fast SSSE3 SSE4.2 AVX FMA3 BMI2 AVX2
x264 [info]: profile High, level 4.1
x264 [info]: frame I:781 Avg QP:18.35 size: 92027
x264 [info]: frame P:28247 Avg QP:21.52 size: 35003
x264 [info]: frame B:95734 Avg QP:23.68 size: 9306
x264 [info]: consecutive B-frames: 2.8% 2.6% 9.1% 17.1% 14.3% 52.7% 1.2% 0.1% 0.0%
x264 [info]: mb I I16..4: 1.0% 85.2% 13.7%
x264 [info]: mb P I16..4: 0.2% 8.5% 0.9% P16..4: 35.7% 41.2% 13.0% 0.0% 0.0% skip: 0.6%
x264 [info]: mb B I16..4: 0.0% 0.7% 0.1% B16..8: 35.4% 19.2% 3.0% direct: 5.1% skip:36.6% L0:40.5% L1:45.4% BI:14.1%
x264 [info]: 8x8 transform intra:87.6% inter:63.0%
x264 [info]: direct mvs spatial:99.6% temporal:0.4%
x264 [info]: coded y,uvDC,uvAC intra: 96.5% 74.2% 33.2% inter: 30.4% 17.3% 2.8%
x264 [info]: i16 v,h,dc,p: 42% 9% 1% 47%
x264 [info]: i8 v,h,dc,ddl,ddr,vr,hd,vl,hu: 9% 8% 4% 10% 16% 15% 14% 12% 12%
x264 [info]: i4 v,h,dc,ddl,ddr,vr,hd,vl,hu: 12% 9% 1% 8% 16% 16% 14% 11% 11%
x264 [info]: i8c dc,h,v,p: 30% 28% 23% 19%
x264 [info]: Weighted P-Frames: Y:19.6% UV:6.0%
x264 [info]: ref P L0: 45.3% 14.9% 16.6% 6.2% 5.2% 3.6% 3.4% 1.9% 2.2% 0.7% 0.0%
x264 [info]: ref B L0: 86.2% 6.8% 2.6% 1.5% 1.0% 0.9% 0.6% 0.4%
x264 [info]: ref B L1: 98.5% 1.5%
x264 [info]: kb/s:3000.22
encoded 124762 frames, 10.48 fps, 3000.22 kb/s

ТХ/MediaInfo

GeneralComplete name : K:\Torrents\Dzhentlmenu_ydachi.1971.BDRip.x264.1280x.rip by Frost O.S.mp4Format : MPEG-4Format profile : 3GPP Media Release 6 BasicCodec ID : 3gp6 (isom/3gp6/avc1/mp42)File size : 1.90 GiBDuration : 1 h 26 minOverall bit rate mode : VariableOverall bit rate : 3 132 kb/sEncoded date : UTC 2018-09-15 14:50:50Tagged date : UTC 2018-09-15 14:50:50Writing application : Yamb 2.1.0.0
VideoID : 1Format : AVCFormat/Info : Advanced Video CodecFormat profile : High@L4.1Format settings : CABAC / 9 Ref FramesFormat settings, CABAC : YesFormat settings, RefFrames : 9 framesCodec ID : avc1Codec ID/Info : Advanced Video CodingDuration : 1 h 26 minBit rate : 3 000 kb/sMaximum bit rate : 8 056 kb/sWidth : 950 pixelsHeight : 720 pixelsDisplay aspect ratio : 4:3Frame rate mode : ConstantFrame rate : 23.976 (24000/1001) FPSColor space : YUVChroma subsampling : 4:2:0Bit depth : 8 bitsScan type : ProgressiveBits/(Pixel*Frame) : 0.183Stream size : 1.82 GiB (96%)Writing library : x264 core 152 r2851 ba24899Encoding settings : cabac=1 / ref=9 / deblock=1:-2:-2 / analyse=0x3:0x113 / me=umh / subme=11 / psy=1 / psy_rd=0.90:0.00 / mixed_ref=1 / me_range=32 / chroma_me=1 / trellis=2 / 8x8dct=1 / cqm=0 / deadzone=21,11 / fast_pskip=0 / chroma_qp_offset=-2 / threads=6 / lookahead_threads=1 / sliced_threads=0 / nr=0 / decimate=0 / interlaced=0 / bluray_compat=0 / constrained_intra=0 / bframes=8 / b_pyramid=2 / b_adapt=2 / b_bias=0 / direct=3 / weightb=1 / open_gop=0 / weightp=2 / keyint=250 / keyint_min=23 / scenecut=40 / intra_refresh=0 / rc=2pass / mbtree=0 / bitrate=3000 / ratetol=1.0 / qcomp=0.70 / qpmin=0 / qpmax=69 / qpstep=4 / cplxblur=20.0 / qblur=0.5 / ip_ratio=1.40 / pb_ratio=1.30 / aq=1:0.80Encoded date : UTC 2018-09-15 11:45:23Tagged date : UTC 2018-09-15 14:51:24Color range : LimitedColor primaries : BT.709Transfer characteristics : BT.709Matrix coefficients : BT.709
AudioID : 2Format : AACFormat/Info : Advanced Audio CodecFormat profile : LCCodec ID : mp4a-40-2Duration : 1 h 26 minBit rate mode : VariableBit rate : 128 kb/sMaximum bit rate : 133 kb/sChannel(s) : 2 channelsChannel positions : Front: L RSampling rate : 48.0 kHzFrame rate : 46.875 FPS (1024 SPF)Compression mode : LossyStream size : 79.4 MiB (4%)Encoded date : UTC 2018-09-15 14:47:38Tagged date : UTC 2018-09-15 14:51:24


[torrentc.info]_t_5613179.torrent
Торрент: Зарегистрирован ·  [ 2018-09-19 22:35 ] ·  817d0f53d77ef59fbd54cf65ca75a6c44a875fc1

19 KB

Статус: проверено
Скачан: 0 раз
Размер: 1.9 GB
Оценка: 
(Голосов: 0)
Сказали спасибо: 0  Спасибо
Похожие темы
[Профиль]    [ЛС]
Показать сообщения:    
Ответить на тему

Текущее время: Сегодня 14:26

Часовой пояс: GMT + 7



Вы не можете начинать темы
Вы не можете отвечать на сообщения
Вы не можете редактировать свои сообщения
Вы не можете удалять свои сообщения
Вы не можете голосовать в опросах
Вы не можете прикреплять файлы к сообщениям
Вы можете скачивать файлы