(Trance) [CDM] Zymotix - Rachel In Trance (Rachel\'s Song) - 1999, APE (image+.cue), lossless

Ответить на тему
Статистика раздачи [Обновить пиров]
Размер:  136 MB   |    Зарегистрирован:  1 месяц 1 день   |    Скачан:  0 раз

Полного источника не было: Никогда

 
   
 
 
 
Автор Сообщение

torrentc.info

Создавать темы 19-Сен-2018 20:31

[Цитировать]

Zymotix / Rachel In Trance (Rachel's Song)
Жанр: Trance
Носитель: CDM
Страна-производитель диска (релиза): Германия
Год издания: 1999
Издатель (лейбл): Shift Music
Номер по каталогу: SFT 0162-8
Аудиокодек: APE (*.ape)
Тип рипа: image+.cue
Битрейт аудио: lossless
Продолжительность: 00:20:45
Источник (релизер): собственный рип
Наличие сканов в содержимом раздачи: да
Треклист:
01. Rachel In Trance (Short Cut) (3:43)
02. Rachel In Trance (Maximum Cut) (6:09)
03. Rachel In Trance (Club Remix) (5:50)
04. Jetsettrack (5:03)

Лог создания рипа

Exact Audio Copy V1.3 from 2. September 2016
Отчёт EAC об извлечении, выполненном 11. сентября 2018, 23:07
Zymotix / Rachel In Trance
Дисковод: HL-DT-STBD-RE BH08LS20 Adapter: 1 ID: 0
Режим чтения : ДостоверностьИспользование точного потока : ДаОтключение кэша аудио : ДаИспользование указателей C2 : Нет
Коррекция смещения при чтении : 667Способность читать области Lead-in и Lead-out : НетЗаполнение пропущенных сэмплов тишиной : ДаУдаление блоков с тишиной в начале и конце : НетПри вычислениях CRC использовались нулевые сэмплы : ДаИнтерфейс : Встроенный Win32-интерфейс для Win NT/2000
Выходной формат : Monkey's Audio (без потерь)Выбранный битрейт : Fast Lossless CompressionКачество : ВысокийДобавление ID3-тега : НетУтилита сжатия : C:\Program Files\Monkey's Audio x64\MAC.exe
TOC извлечённого CD
Трек | Старт | Длительность | Начальный сектор | Конечный сектор --------------------------------------------------------------------- 1 | 0:00.00 | 3:43.25 | 0 | 16749 2 | 3:43.25 | 6:08.65 | 16750 | 44414 3 | 9:52.15 | 5:50.29 | 44415 | 70693 4 | 15:42.44 | 5:02.37 | 70694 | 93380
Характеристики диапазона извлечения и сообщения об ошибках
Выбранный диапазон
Имя файла E:\EAC\Zymotix - Rachel In Trance.wav
Пиковый уровень 100.0 % Скорость извлечения 6.2 X Качество диапазона 100.0 % CRC теста 46BB6B9A CRC копии 46BB6B9A Копирование... OK
Ошибок не произошло
AccurateRip: сводка
Трек 1 : извлечено точно (доверие 1) [B3A7B9E1] (AR v2)Трек 2 : извлечено точно (доверие 1) [53379D99] (AR v2)Трек 3 : извлечено точно (доверие 1) [1AE3CB24] (AR v2)Трек 4 : извлечено точно (доверие 1) [088469C2] (AR v2)
Все треки извлечены точно
Конец отчёта
---- CUETools DB Plugin V2.1.6
[CTDB TOCID: EVuBt3OmTDrhe6dRplOGn41qbvo-] foundSubmit result: EVuBt3OmTDrhe6dRplOGn41qbvo- has been confirmedTrack | CTDB Status 1 | (1/1) Accurately ripped 2 | (1/1) Accurately ripped 3 | (1/1) Accurately ripped 4 | (1/1) Accurately ripped
==== Контрольная сумма отчёта 771FBB70C15F4589488334C9CDA7296FC498AA58F2EE9757016106161B93067A ====

Содержание индексной карты (.CUE)

REM DATE 1999REM DISCID 2E04DD04REM COMMENT "ExactAudioCopy v1.3"PERFORMER "Zymotix"TITLE "Rachel In Trance"REM COMPOSER ""FILE "Zymotix - Rachel In Trance.ape" WAVE TRACK 01 AUDIO TITLE "Rachel In Trance (Short Cut)" PERFORMER "Zymotix" REM COMPOSER "" INDEX 01 00:00:00 TRACK 02 AUDIO TITLE "Rachel In Trance (Maximum Cut)" PERFORMER "Zymotix" REM COMPOSER "" INDEX 00 03:41:25 INDEX 01 03:43:25 TRACK 03 AUDIO TITLE "Rachel In Trance (Club Remix)" PERFORMER "Zymotix" REM COMPOSER "" INDEX 00 09:50:15 INDEX 01 09:52:15 TRACK 04 AUDIO TITLE "Jetsettrack" PERFORMER "Zymotix" REM COMPOSER "" INDEX 00 15:40:44 INDEX 01 15:42:44


[torrentc.info]_t_5613688.torrent
Торрент: Зарегистрирован ·  [ 2018-09-19 20:30 ] ·  33cf83eca218532ebe422747f145c50e709176a3

11 KB

Статус: проверено
Скачан: 0 раз
Размер: 136 MB
Оценка: 
(Голосов: 0)
Сказали спасибо: 0  Спасибо
Похожие темы
[Профиль]    [ЛС]
Показать сообщения:    
Ответить на тему

Текущее время: Сегодня 04:25

Часовой пояс: GMT + 7



Вы не можете начинать темы
Вы не можете отвечать на сообщения
Вы не можете редактировать свои сообщения
Вы не можете удалять свои сообщения
Вы не можете голосовать в опросах
Вы не можете прикреплять файлы к сообщениям
Вы можете скачивать файлы