Ossian - Időutazás (Idoutazas) 1998-2008 [2009, Heavy Metal, DVD5]

Ответить на тему
Статистика раздачи [Обновить пиров]
Размер:  4.11 GB   |    Зарегистрирован:  2 месяца 21 день   |    Скачан:  0 раз

Полного источника не было: Никогда

 
   
 
 
 
Автор Сообщение

torrentc.info

Создавать темы 19-Сен-2018 03:38

[Цитировать]

Ossian - Időutazás (Idoutazas) 1998-2008
Страна: Hungary
Жанр: Heavy Metal
Продолжительность: 01:20:35
Год выхода: 2009
Лейбл: HMRCDVD 079
Описание: Ez egy olyan összeállítás, amelyen 1998-tól 2008-ig terjedően összegyűjtötték a csapat klipjeit, plusz bónuszként még ritkaságokat is. Az együttes sajátos hangulatú, legtöbbször fekete-fehér színvilágú klipjei váltják egymást koncertanyagokkal, s ez azért is értékes, mert a legtöbb klipet már nem játsszák a zenetévék, így itt lehet azokat immár fellelni. Figyelmes ajándék az Ossianosoknak (is)!
Треклист:
01. Asszony feketében
02. A Száműzött visszatér
03. Fortissimo
04. Metal-vihar
05. Fortuna csókja
06. Tűréshatár
07. Tűzkeresztség II. (Rock ’n roll, csak rock ’n roll)
08. Desdemona
09. Hangerőmű
10. 15 perc
11. Árnyékból a fénybe
12. A Veszély Rabja
13. Rock and roll démon
14. Élő sakkfigurák
15. A pokolnál hangosabb
16. Másnapos dal
17. Zsoldos
Bonus:
01. Világtalan világ
02. A száműzött visszatér – Studiowerk 2008 – 1. rész
03. A Száműzött visszatér – Studiowerk 2008 (gitárszóló) – 2. rész
04. Hosszú álom
05. Pogány ima
06. Többet ér mindennél
07. Az utolsó lázadó
Разбивка на главы по трекам: есть
Качество : DVD5
Формат файла: DVD video
Видео кодек: MPEG2
Аудио кодек: PCM; АС3
Видео: MPEG-2, 720 x 576, 4000 kbps, 25,000 fps
Аудио: PCM, 1536 kbps, 16 bit, 48kHz, 2 ch
Аудио2: AC3, 384 kb/s, 16 bit, 48 kHz, 2 ch

DVDinfo

GeneralComplete name : F:\Ossian - Idoutazas 1998-2008\folder.jpgFormat : JPEGFile size : 370 KiB
ImageFormat : JPEGWidth : 1 533 pixelsHeight : 2 185 pixelsColor space : YUVChroma subsampling : 4:2:0Bit depth : 8 bitsCompression mode : LossyStream size : 370 KiB (100%)
GeneralComplete name : F:\Ossian - Idoutazas 1998-2008\Ossian - Idoutazas 1998-2008.jpgFormat : JPEGFile size : 1.15 MiB
ImageFormat : JPEGWidth : 3 236 pixelsHeight : 2 185 pixelsColor space : YUVChroma subsampling : 4:4:4Bit depth : 8 bitsCompression mode : LossyStream size : 1.15 MiB (100%)
GeneralComplete name : F:\Ossian - Idoutazas 1998-2008\VIDEO_TS\VIDEO_TS.BUPFormat : DVD VideoFormat profile : MenuFile size : 14.0 KiBOverall bit rate mode : VariableFileExtension_Invalid : ifo
VideoID : 224 (0xE0)Format : MPEG VideoFormat version : Version 2Bit rate mode : VariableWidth : 720 pixelsHeight : 576 pixelsDisplay aspect ratio : 4:3Frame rate : 25.000 FPSStandard : PALCompression mode : Lossy
GeneralComplete name : F:\Ossian - Idoutazas 1998-2008\VIDEO_TS\VIDEO_TS.IFOFormat : DVD VideoFormat profile : MenuFile size : 14.0 KiBOverall bit rate mode : Variable
VideoID : 224 (0xE0)Format : MPEG VideoFormat version : Version 2Bit rate mode : VariableWidth : 720 pixelsHeight : 576 pixelsDisplay aspect ratio : 4:3Frame rate : 25.000 FPSStandard : PALCompression mode : Lossy
GeneralComplete name : F:\Ossian - Idoutazas 1998-2008\VIDEO_TS\VIDEO_TS.VOBFormat : MPEG-PSFile size : 48.0 KiBDuration : 40 msOverall bit rate mode : VariableOverall bit rate : 9 830 kb/s
VideoID : 224 (0xE0)Format : MPEG VideoFormat version : Version 2Format profile : Main@MainFormat settings, BVOP : NoFormat settings, Matrix : DefaultDuration : 40 msBit rate mode : VariableMaximum bit rate : 9 000 kb/sWidth : 720 pixelsHeight : 576 pixelsDisplay aspect ratio : 4:3Frame rate : 25.000 FPSStandard : PALColor space : YUVChroma subsampling : 4:2:0Bit depth : 8 bitsScan type : ProgressiveScan order : Top Field FirstCompression mode : LossyTime code of first frame : 00:00:00:00Time code source : Group of pictures headerColor primaries : BT.601 PALTransfer characteristics : BT.470 System B/GMatrix coefficients : BT.470 System B/G
Menu
GeneralComplete name : F:\Ossian - Idoutazas 1998-2008\VIDEO_TS\VTS_01_0.BUPFormat : DVD VideoFormat profile : ProgramFile size : 76.0 KiBDuration : 4 min 13 sOverall bit rate mode : VariableOverall bit rate : 2 455 b/sFileExtension_Invalid : ifo
VideoID : 224 (0xE0)Format : MPEG VideoFormat version : Version 2Duration : 4 min 13 sBit rate mode : VariableWidth : 720 pixelsHeight : 576 pixelsDisplay aspect ratio : 4:3Frame rate : 25.000 FPSStandard : PALCompression mode : Lossy
Audio #1ID : 128 (0x80)Format : AC-3Format/Info : Audio Coding 3Duration : 4 min 13 sChannel(s) : 2 channelsSampling rate : 48.0 kHzCompression mode : LossyLanguage : Hungarian
Audio #2ID : 1 (0x1)Format : PCMDuration : 4 min 13 sChannel(s) : 2 channelsSampling rate : 48.0 kHzLanguage : Hungarian
Menu #1Duration : 4 min 13 s00:00:00.000 : Chapter 1List (Audio) : 0 / 1
Menu #2Duration : 3 min 40 s00:00:00.000 : Chapter 1List (Audio) : 0 / 1
GeneralComplete name : F:\Ossian - Idoutazas 1998-2008\VIDEO_TS\VTS_01_0.IFOFormat : DVD VideoFormat profile : ProgramFile size : 76.0 KiBDuration : 4 min 13 sOverall bit rate mode : VariableOverall bit rate : 2 455 b/s
VideoID : 224 (0xE0)Format : MPEG VideoFormat version : Version 2Duration : 4 min 13 sBit rate mode : VariableWidth : 720 pixelsHeight : 576 pixelsDisplay aspect ratio : 4:3Frame rate : 25.000 FPSStandard : PALCompression mode : Lossy
Audio #1ID : 128 (0x80)Format : AC-3Format/Info : Audio Coding 3Duration : 4 min 13 sChannel(s) : 2 channelsSampling rate : 48.0 kHzCompression mode : LossyLanguage : Hungarian
Audio #2ID : 1 (0x1)Format : PCMDuration : 4 min 13 sChannel(s) : 2 channelsSampling rate : 48.0 kHzLanguage : Hungarian
Menu #1Duration : 4 min 13 s00:00:00.000 : Chapter 1List (Audio) : 0 / 1
Menu #2Duration : 3 min 40 s00:00:00.000 : Chapter 1List (Audio) : 0 / 1
GeneralComplete name : F:\Ossian - Idoutazas 1998-2008\VIDEO_TS\VTS_01_0.VOBFormat : MPEG-PSFile size : 14.2 MiBDuration : 3 s 600 msOverall bit rate mode : VariableOverall bit rate : 33.1 Mb/s
VideoID : 224 (0xE0)Format : MPEG VideoFormat version : Version 2Format profile : Main@MainFormat settings, BVOP : NoFormat settings, Matrix : DefaultFormat settings, GOP : M=3, N=13Duration : 3 s 600 msBit rate mode : VariableBit rate : 32.0 Mb/sMaximum bit rate : 9 000 kb/sWidth : 720 pixelsHeight : 576 pixelsDisplay aspect ratio : 4:3Frame rate : 25.000 FPSStandard : PALColor space : YUVChroma subsampling : 4:2:0Bit depth : 8 bitsScan type : ProgressiveScan order : Top Field FirstCompression mode : LossyBits/(Pixel*Frame) : 3.090Stream size : 13.7 MiB (97%)Color primaries : BT.601 PALTransfer characteristics : BT.470 System B/GMatrix coefficients : BT.470 System B/G
AudioID : 189 (0xBD)-128 (0x80)Format : AC-3Format/Info : Audio Coding 3Muxing mode : DVD-VideoDuration : 3 s 360 msBit rate mode : ConstantBit rate : 384 kb/sChannel(s) : 2 channelsChannel positions : Front: L RSampling rate : 48.0 kHzFrame rate : 31.250 FPS (1536 SPF)Bit depth : 16 bitsCompression mode : LossyStream size : 158 KiB (1%)Service kind : Complete Main
TextID : 189 (0xBD)-32 (0x20)Format : RLEFormat/Info : Run-length encodingMuxing mode : DVD-Video
Menu
GeneralComplete name : F:\Ossian - Idoutazas 1998-2008\VIDEO_TS\VTS_01_1.VOBFormat : MPEG-PSFile size : 1 000 MiBDuration : 2 min 10 sOverall bit rate mode : VariableOverall bit rate : 64.2 Mb/sWriting library : encoded by TMPGEnc 3.0 XPress Version. 3.0.4.24
VideoID : 224 (0xE0)Format : MPEG VideoFormat version : Version 2Format profile : Main@MainFormat settings : CustomMatrix / BVOPFormat settings, BVOP : YesFormat settings, Matrix : CustomFormat settings, GOP : M=3, N=13Duration : 2 min 10 sBit rate mode : VariableBit rate : 61.0 Mb/sMaximum bit rate : 8 000 kb/sWidth : 720 pixelsHeight : 576 pixelsDisplay aspect ratio : 4:3Frame rate : 25.000 FPSStandard : PALColor space : YUVChroma subsampling : 4:2:0Bit depth : 8 bitsScan type : ProgressiveCompression mode : LossyBits/(Pixel*Frame) : 5.888Time code of first frame : 00:00:00:00Time code source : Group of pictures headerGOP, Open/Closed : ClosedStream size : 950 MiB (95%)Writing library : TMPGEnc 3.0 XPress Version. 3.0.4.24Color primaries : BT.601 PALTransfer characteristics : BT.470 System B/GMatrix coefficients : FCC 73.682
Audio #1ID : 189 (0xBD)-128 (0x80)Format : AC-3Format/Info : Audio Coding 3Muxing mode : DVD-VideoDuration : 2 min 10 sBit rate mode : ConstantBit rate : 384 kb/sChannel(s) : 2 channelsChannel positions : Front: L RSampling rate : 48.0 kHzFrame rate : 31.250 FPS (1536 SPF)Bit depth : 16 bitsCompression mode : LossyStream size : 5.97 MiB (1%)Service kind : Complete Main
Audio #2ID : 189 (0xBD)-161 (0xA1)Format : PCMFormat settings : Big / SignedMuxing mode : DVD-VideoDuration : 2 min 10 sBit rate mode : ConstantBit rate : 1 536 kb/sChannel(s) : 2 channelsSampling rate : 48.0 kHzBit depth : 16 bitsStream size : 23.9 MiB (2%)
Menu
GeneralComplete name : F:\Ossian - Idoutazas 1998-2008\VIDEO_TS\VTS_01_2.VOBFormat : MPEG-PSFile size : 1 000 MiBOverall bit rate mode : Variable
VideoID : 224 (0xE0)Format : MPEG VideoFormat version : Version 2Format profile : Main@MainFormat settings : CustomMatrix / BVOPFormat settings, BVOP : YesFormat settings, Matrix : CustomFormat settings, GOP : VariableBit rate mode : VariableMaximum bit rate : 8 000 kb/sWidth : 720 pixelsHeight : 576 pixelsDisplay aspect ratio : 4:3Frame rate : 25.000 FPSStandard : PALColor space : YUVChroma subsampling : 4:2:0Bit depth : 8 bitsScan type : ProgressiveCompression mode : LossyTime code of first frame : 00:02:10:15Time code source : Group of pictures headerGOP, Open/Closed : ClosedColor primaries : BT.601 PALTransfer characteristics : BT.470 System B/GMatrix coefficients : FCC 73.682
Audio #1ID : 189 (0xBD)-128 (0x80)Format : AC-3Format/Info : Audio Coding 3Muxing mode : DVD-VideoBit rate mode : ConstantBit rate : 384 kb/sChannel(s) : 2 channelsChannel positions : Front: L RSampling rate : 48.0 kHzFrame rate : 31.250 FPS (1536 SPF)Bit depth : 16 bitsCompression mode : LossyDelay relative to video : -232 msService kind : Complete Main
Audio #2ID : 189 (0xBD)-161 (0xA1)Format : PCMFormat settings : Big / SignedMuxing mode : DVD-VideoBit rate mode : ConstantBit rate : 1 536 kb/sChannel(s) : 2 channelsSampling rate : 48.0 kHzBit depth : 16 bitsDelay relative to video : -267 ms
Menu
GeneralComplete name : F:\Ossian - Idoutazas 1998-2008\VIDEO_TS\VTS_01_3.VOBFormat : MPEG-PSFile size : 1 000 MiBOverall bit rate mode : Variable
VideoID : 224 (0xE0)Format : MPEG VideoFormat version : Version 2Format profile : Main@MainFormat settings : CustomMatrix / BVOPFormat settings, BVOP : YesFormat settings, Matrix : CustomFormat settings, GOP : VariableBit rate mode : VariableMaximum bit rate : 8 000 kb/sWidth : 720 pixelsHeight : 576 pixelsDisplay aspect ratio : 4:3Frame rate : 25.000 FPSStandard : PALColor space : YUVChroma subsampling : 4:2:0Bit depth : 8 bitsScan type : ProgressiveCompression mode : LossyTime code of first frame : 00:01:33:11Time code source : Group of pictures headerGOP, Open/Closed : ClosedColor primaries : BT.601 PALTransfer characteristics : BT.470 System B/GMatrix coefficients : FCC 73.682
Audio #1ID : 189 (0xBD)-128 (0x80)Format : AC-3Format/Info : Audio Coding 3Muxing mode : DVD-VideoBit rate mode : ConstantBit rate : 384 kb/sChannel(s) : 2 channelsChannel positions : Front: L RSampling rate : 48.0 kHzFrame rate : 31.250 FPS (1536 SPF)Bit depth : 16 bitsCompression mode : LossyDelay relative to video : -224 msService kind : Complete Main
Audio #2ID : 189 (0xBD)-161 (0xA1)Format : PCMFormat settings : Big / SignedMuxing mode : DVD-VideoBit rate mode : ConstantBit rate : 1 536 kb/sChannel(s) : 2 channelsSampling rate : 48.0 kHzBit depth : 16 bitsDelay relative to video : -245 ms
Menu
GeneralComplete name : F:\Ossian - Idoutazas 1998-2008\VIDEO_TS\VTS_01_4.VOBFormat : MPEG-PSFile size : 1 000 MiBDuration : 1 min 12 sOverall bit rate mode : VariableOverall bit rate : 116 Mb/s
VideoID : 224 (0xE0)Format : MPEG VideoFormat version : Version 2Format profile : Main@MainFormat settings : CustomMatrix / BVOPFormat settings, BVOP : YesFormat settings, Matrix : CustomFormat settings, GOP : M=3, N=13Duration : 1 min 12 sBit rate mode : VariableBit rate : 112 Mb/sMaximum bit rate : 8 000 kb/sWidth : 720 pixelsHeight : 576 pixelsDisplay aspect ratio : 4:3Frame rate : 25.000 FPSStandard : PALColor space : YUVChroma subsampling : 4:2:0Bit depth : 8 bitsScan type : ProgressiveCompression mode : LossyBits/(Pixel*Frame) : 10.791Time code of first frame : 00:00:25:00Time code source : Group of pictures headerGOP, Open/Closed : ClosedStream size : 963 MiB (96%)Color primaries : BT.601 PALTransfer characteristics : BT.470 System B/GMatrix coefficients : FCC 73.682
Audio #1ID : 189 (0xBD)-128 (0x80)Format : AC-3Format/Info : Audio Coding 3Muxing mode : DVD-VideoDuration : 1 min 12 sBit rate mode : ConstantBit rate : 384 kb/sChannel(s) : 2 channelsChannel positions : Front: L RSampling rate : 48.0 kHzFrame rate : 31.250 FPS (1536 SPF)Bit depth : 16 bitsCompression mode : LossyDelay relative to video : -200 msStream size : 3.30 MiB (0%)Service kind : Complete Main
Audio #2ID : 189 (0xBD)-161 (0xA1)Format : PCMFormat settings : Big / SignedMuxing mode : DVD-VideoDuration : 1 min 12 sBit rate mode : ConstantBit rate : 1 536 kb/sChannel(s) : 2 channelsSampling rate : 48.0 kHzBit depth : 16 bitsDelay relative to video : -265 msStream size : 13.2 MiB (1%)
Menu
GeneralComplete name : F:\Ossian - Idoutazas 1998-2008\VIDEO_TS\VTS_01_5.VOBFormat : MPEG-PSFile size : 195 MiBOverall bit rate mode : Variable
VideoID : 224 (0xE0)Format : MPEG VideoFormat version : Version 2Format profile : Main@MainFormat settings : CustomMatrix / BVOPFormat settings, BVOP : YesFormat settings, Matrix : CustomFormat settings, GOP : M=3, N=13Bit rate mode : VariableMaximum bit rate : 8 000 kb/sWidth : 720 pixelsHeight : 576 pixelsDisplay aspect ratio : 4:3Frame rate : 25.000 FPSStandard : PALColor space : YUVChroma subsampling : 4:2:0Bit depth : 8 bitsScan type : ProgressiveCompression mode : LossyTime code of first frame : 00:01:37:06Time code source : Group of pictures headerGOP, Open/Closed : ClosedColor primaries : BT.601 PALTransfer characteristics : BT.470 System B/GMatrix coefficients : FCC 73.682
Audio #1ID : 189 (0xBD)-128 (0x80)Format : AC-3Format/Info : Audio Coding 3Muxing mode : DVD-VideoBit rate mode : ConstantBit rate : 384 kb/sChannel(s) : 2 channelsChannel positions : Front: L RSampling rate : 48.0 kHzFrame rate : 31.250 FPS (1536 SPF)Bit depth : 16 bitsCompression mode : LossyDelay relative to video : -248 msService kind : Complete Main
Audio #2ID : 189 (0xBD)-161 (0xA1)Format : PCMFormat settings : Big / SignedMuxing mode : DVD-VideoBit rate mode : ConstantBit rate : 1 536 kb/sChannel(s) : 2 channelsSampling rate : 48.0 kHzBit depth : 16 bitsDelay relative to video : -270 ms
Menu

Скриншоты меню

Скриншоты





[torrentc.info]_t_5585625.torrent
Торрент: Зарегистрирован ·  [ 2018-09-19 03:38 ] ·  3dfb34c52724813a4f3d993aa7a8cce9cc6884be

11 KB

Статус: проверено
Скачан: 0 раз
Размер: 4.11 GB
Оценка: 
(Голосов: 0)
Сказали спасибо: 0  Спасибо
Похожие темы
[Профиль]    [ЛС]
Показать сообщения:    
Ответить на тему

Текущее время: Сегодня 18:03

Часовой пояс: GMT + 7



Вы не можете начинать темы
Вы не можете отвечать на сообщения
Вы не можете редактировать свои сообщения
Вы не можете удалять свои сообщения
Вы не можете голосовать в опросах
Вы не можете прикреплять файлы к сообщениям
Вы можете скачивать файлы