Yellow Magic Orchestra: Live In San Francisco 2011 [2015, Electronic, Synth-pop, Blu-ray, 1080i]

Ответить на тему
Статистика раздачи [Обновить пиров]
Размер:  29.76 GB   |    Зарегистрирован:  1 месяц 27 дней   |    Скачан:  0 раз

Полного источника не было: Никогда

 
   
 
 
 
Автор Сообщение

torrentc.info

Создавать темы 18-Сен-2018 21:07

[Цитировать]

Yellow Magic Orchestra: Live In San Francisco 2011
Жанр: Electronic, Synth-pop
Продолжительность: 01:46:59
Год выхода: 2015
Описание: Yellow Magic Orchestra's June 27, 2011 show, at the Hollywood Bowl in L.A. It has been 31 years since YMO performed in the U.S. last. The band featured support members Oyamada Keigo (Cornelius), Gondō Tomohiko (anonymass, pupa) and Christian Fennesz.
Треклист Live: [01:34:18]
1. Improvisation
2. Firecracker
3. Behind the Mask
4. Riot in Lagos
5. The City of Light
6. Tokyo Town Pages
7. Lotus Love
8. Ongaku
9. Seoul Music
10. Gradated Gray
11. Taiso
12. Tibetan Dance
13. Supreme Secret
14. Thousand Knives
15. Cosmic Surfin’
16. Rydeen
Encore
01. Cue
02. Tong Poo
Интервью [00:12:40]
Качество: Blu-ray
Разрешение видео/развертка: 1080i
Формат файла: BDMV
Видео кодек: H.264
Аудио кодек: PCM
Видео: MPEG-4 AVC Video / 34872 kbps / 1080i / 29,970 fps / 16:9 / High Profile 4.1
Аудио: Japanese / LPCM Audio / 2.0 / 48 kHz / 1536 kbps / 16-bit

BDInfo

Disc Title: RZXM_59938Disc Size: 31 955 739 965 bytesProtection: AACSBD-Java: NoBDInfo: 0.5.8
Notes:
BDINFO HOME: Cinema Squid http://www.cinemasquid.com/blu-ray/tools/bdinfo
INCLUDES FORUMS REPORT FOR: AVS Forum Blu-ray Audio and Video Specifications Thread http://www.avsforum.com/avs-vb/showthread.php?t=1155731
********************PLAYLIST: 00001.MPLS********************
Total   Video
Title                                                           Codec   Length  Movie Size      Disc Size       Bitrate Bitrate Main Audio Track                          Secondary Audio Track
-----                                                           ------  ------- --------------  --------------  ------- ------- ------------------                        ---------------------
00001.MPLS                                                      AVC     1:46:59 30 759 450 624  31 955 739 965  38,33   34,87   LPCM 2.0 1536Kbps (48kHz/16-bit)
DISC INFO:
Disc Title:     RZXM_59938
Disc Size:      31 955 739 965 bytes
Protection:     AACS
BD-Java:        No
BDInfo:         0.5.8
PLAYLIST REPORT:
Name:                   00001.MPLS
Length:                 1:46:59.413 (h:m:s.ms)
Size:                   30 759 450 624 bytes
Total Bitrate:          38,33 Mbps
VIDEO:
Codec                   Bitrate             Description
-----                   -------             -----------
MPEG-4 AVC Video        34872 kbps          1080i / 29,970 fps / 16:9 / High Profile 4.1
AUDIO:
Codec                           Language        Bitrate         Description
-----                           --------        -------         -----------
LPCM Audio                      Japanese        1536 kbps       2.0 / 48 kHz / 1536 kbps / 16-bit
FILES:
Name            Time In         Length          Size            Total Bitrate
----            -------         ------          ----            -------------
00001.M2TS      0:00:00.000     1:34:18.653     27 158 519 808  38 396
00002.M2TS      1:34:18.653     0:12:40.760     3 600 930 816   37 867
CHAPTERS:
Number          Time In         Length          Avg Video Rate  Max 1-Sec Rate  Max 1-Sec Time  Max 5-Sec Rate  Max 5-Sec Time  Max 10Sec Rate  Max 10Sec Time  Avg Frame Size  Max Frame Size  Max Frame Time
------          -------         ------          --------------  --------------  --------------  --------------  --------------  --------------  --------------  --------------  --------------  --------------
1               0:00:00.000     0:00:14.314     32 968 kbps     51 704 kbps     00:00:01.534    38 154 kbps     00:00:01.301    36 378 kbps     00:00:01.301    137 186 bytes   275 080 bytes   00:00:01.735
2               0:00:14.314     0:05:55.722     34 358 kbps     44 388 kbps     00:03:19.365    36 775 kbps     00:05:36.969    36 002 kbps     00:03:40.119    143 302 bytes   243 280 bytes   00:05:39.605
3               0:06:10.036     0:05:20.653     35 121 kbps     49 815 kbps     00:10:32.198    38 218 kbps     00:07:36.689    37 367 kbps     00:07:22.041    146 484 bytes   353 882 bytes   00:10:28.861
4               0:11:30.689     0:03:45.892     34 839 kbps     49 478 kbps     00:13:53.332    37 718 kbps     00:13:45.257    37 325 kbps     00:13:53.465    145 309 bytes   325 789 bytes   00:11:48.307
5               0:15:16.582     0:05:45.344     34 653 kbps     49 633 kbps     00:18:51.663    37 939 kbps     00:18:30.943    36 944 kbps     00:19:15.988    144 531 bytes   363 154 bytes   00:18:51.830
6               0:21:01.927     0:04:38.278     34 557 kbps     52 169 kbps     00:25:05.537    38 917 kbps     00:22:42.294    37 018 kbps     00:22:39.458    144 131 bytes   281 517 bytes   00:22:46.298
7               0:25:40.205     0:05:16.149     34 381 kbps     48 582 kbps     00:26:20.045    37 494 kbps     00:26:25.583    36 581 kbps     00:26:25.584    143 396 bytes   291 456 bytes   00:28:49.094
8               0:30:56.354     0:04:09.749     35 044 kbps     54 911 kbps     00:33:10.688    39 680 kbps     00:31:51.876    37 458 kbps     00:34:24.495    146 163 bytes   344 377 bytes   00:32:57.508
9               0:35:06.104     0:05:13.680     35 435 kbps     52 536 kbps     00:37:16.934    39 598 kbps     00:35:49.947    38 574 kbps     00:37:35.820    147 792 bytes   371 759 bytes   00:39:45.249
10              0:40:19.784     0:05:03.269     35 151 kbps     54 022 kbps     00:42:42.760    40 107 kbps     00:42:39.023    37 781 kbps     00:42:24.542    146 610 bytes   327 260 bytes   00:41:48.772
11              0:45:23.053     0:05:46.012     34 721 kbps     50 498 kbps     00:48:07.384    38 999 kbps     00:46:56.680    37 959 kbps     00:50:13.310    144 816 bytes   424 110 bytes   00:51:08.799
12              0:51:09.065     0:04:48.288     35 305 kbps     52 982 kbps     00:54:05.909    38 420 kbps     00:51:29.953    36 934 kbps     00:53:26.937    147 253 bytes   392 760 bytes   00:52:28.912
13              0:55:57.354     0:05:09.308     35 022 kbps     53 545 kbps     00:59:13.349    39 225 kbps     01:00:43.039    37 081 kbps     00:59:04.307    146 072 bytes   302 280 bytes   00:56:53.243
14              1:01:06.662     0:04:09.582     35 592 kbps     51 009 kbps     01:03:06.115    39 955 kbps     01:02:07.356    37 965 kbps     01:02:07.223    148 449 bytes   349 549 bytes   01:04:05.541
15              1:05:16.245     0:05:44.010     35 235 kbps     50 357 kbps     01:10:57.653    38 923 kbps     01:09:02.771    37 522 kbps     01:09:43.412    146 959 bytes   354 471 bytes   01:06:16.939
16              1:11:00.255     0:04:39.279     35 258 kbps     54 161 kbps     01:12:20.836    39 437 kbps     01:14:46.548    38 215 kbps     01:12:32.081    147 057 bytes   390 846 bytes   01:12:20.869
17              1:15:39.535     0:06:50.343     34 442 kbps     54 302 kbps     01:18:05.347    39 350 kbps     01:16:51.540    37 498 kbps     01:18:10.185    143 650 bytes   370 124 bytes   01:18:00.809
18              1:22:29.878     0:04:41.347     35 240 kbps     50 446 kbps     01:26:01.389    39 642 kbps     01:24:21.222    38 019 kbps     01:23:20.161    146 981 bytes   284 156 bytes   01:23:25.166
19              1:27:11.226     0:06:02.495     35 178 kbps     49 013 kbps     01:28:27.935    38 432 kbps     01:32:09.323    37 205 kbps     01:32:26.107    146 720 bytes   303 520 bytes   01:31:52.039
20              1:33:13.721     0:01:04.931     33 704 kbps     44 534 kbps     01:33:52.593    37 950 kbps     01:33:48.589    37 117 kbps     01:33:43.484    140 573 bytes   388 872 bytes   01:33:24.565
21              1:34:18.653     0:12:40.760     34 425 kbps     59 223 kbps     01:43:12.553    38 981 kbps     01:43:12.619    37 862 kbps     01:43:45.185    143 589 bytes   378 849 bytes   01:40:53.247
STREAM DIAGNOSTICS:
File            PID             Type            Codec           Language                Seconds                 Bitrate                 Bytes           Packets
----            ---             ----            -----           --------                --------------          --------------          -------------   -----
00001.M2TS      4113 (0x1011)   0x1B            AVC                                     5658,586                34 933                  24 708 762 083  134 470 671
00001.M2TS      4352 (0x1100)   0x80            LPCM            jpn (Japanese)          5658,586                1 542                   1 090 988 684   6 790 386
00002.M2TS      4113 (0x1011)   0x1B            AVC                                     760,693                 34 428                  3 273 675 536   17 816 466
00002.M2TS      4352 (0x1100)   0x80            LPCM            jpn (Japanese)          760,693                 1 543                   146 674 528     912 912
QUICK SUMMARY:
Disc Title: RZXM_59938Disc Size: 31 955 739 965 bytesProtection: AACSBD-Java: NoPlaylist: 00001.MPLSSize: 30 759 450 624 bytesLength: 1:46:59.413Total Bitrate: 38,33 MbpsVideo: MPEG-4 AVC Video / 34872 kbps / 1080i / 29,970 fps / 16:9 / High Profile 4.1Audio: Japanese / LPCM Audio / 2.0 / 48 kHz / 1536 kbps / 16-bit
********************PLAYLIST: 00000.MPLS********************
Total   Video
Title                                                           Codec   Length  Movie Size      Disc Size       Bitrate Bitrate Main Audio Track                          Secondary Audio Track
-----                                                           ------  ------- --------------  --------------  ------- ------- ------------------                        ---------------------
00000.MPLS                                                      AVC     0:00:29 41 226 240      31 955 739 965  11,36   9,03    LPCM 2.0 1536Kbps (48kHz/16-bit)
DISC INFO:
Disc Title:     RZXM_59938
Disc Size:      31 955 739 965 bytes
Protection:     AACS
BD-Java:        No
BDInfo:         0.5.8
PLAYLIST REPORT:
Name:                   00000.MPLS
Length:                 0:00:29.029 (h:m:s.ms)
Size:                   41 226 240 bytes
Total Bitrate:          11,36 Mbps
VIDEO:
Codec                   Bitrate             Description
-----                   -------             -----------
MPEG-4 AVC Video        9026 kbps           1080i / 29,970 fps / 16:9 / High Profile 4.1
AUDIO:
Codec                           Language        Bitrate         Description
-----                           --------        -------         -----------
LPCM Audio                      Japanese        1536 kbps       2.0 / 48 kHz / 1536 kbps / 16-bit
FILES:
Name            Time In         Length          Size            Total Bitrate
----            -------         ------          ----            -------------
00000.M2TS      0:00:00.000     0:00:29.029     41 226 240      11 361
CHAPTERS:
Number          Time In         Length          Avg Video Rate  Max 1-Sec Rate  Max 1-Sec Time  Max 5-Sec Rate  Max 5-Sec Time  Max 10Sec Rate  Max 10Sec Time  Avg Frame Size  Max Frame Size  Max Frame Time
------          -------         ------          --------------  --------------  --------------  --------------  --------------  --------------  --------------  --------------  --------------  --------------
1               0:00:00.000     0:00:29.029     9 026 kbps      40 836 kbps     00:00:21.054    30 001 kbps     00:00:18.018    17 572 kbps     00:00:18.018    37 646 bytes    381 836 bytes   00:00:18.418
STREAM DIAGNOSTICS:
File            PID             Type            Codec           Language                Seconds                 Bitrate                 Bytes           Packets
----            ---             ----            -----           --------                --------------          --------------          -------------   -----
00000.M2TS      4113 (0x1011)   0x1B            AVC                                     28,929                  9 057                   32 752 028      178 908
00000.M2TS      4352 (0x1100)   0x80            LPCM            jpn (Japanese)          28,929                  1 548                   5 596 984       34 836
QUICK SUMMARY:
Disc Title: RZXM_59938Disc Size: 31 955 739 965 bytesProtection: AACSBD-Java: NoPlaylist: 00000.MPLSSize: 41 226 240 bytesLength: 0:00:29.029Total Bitrate: 11,36 MbpsVideo: MPEG-4 AVC Video / 9026 kbps / 1080i / 29,970 fps / 16:9 / High Profile 4.1Audio: Japanese / LPCM Audio / 2.0 / 48 kHz / 1536 kbps / 16-bit


[torrentc.info]_t_5612813.torrent
Торрент: Зарегистрирован ·  [ 2018-09-18 21:02 ] ·  96decaefa7da0dbb71f171d834f5ea4880dd7b33

151 KB

Статус: проверено
Скачан: 0 раз
Размер: 29.76 GB
Оценка: 
(Голосов: 0)
Сказали спасибо: 0  Спасибо
Похожие темы
[Профиль]    [ЛС]
Показать сообщения:    
Ответить на тему

Текущее время: Сегодня 12:34

Часовой пояс: GMT + 7



Вы не можете начинать темы
Вы не можете отвечать на сообщения
Вы не можете редактировать свои сообщения
Вы не можете удалять свои сообщения
Вы не можете голосовать в опросах
Вы не можете прикреплять файлы к сообщениям
Вы можете скачивать файлы