Удар / Пяткой в глаз / The Kick (Прачья Пинкаю / Prachya Pinkaew) [2012, Таиланд, Южная Корея, боевые искусства, HDRip] DVO

Ответить на тему
Статистика раздачи [Обновить пиров]
Размер:  1.47 GB   |    Зарегистрирован:  1 месяц 6 дней   |    Скачан:  0 раз

Полного источника не было: Никогда

 
   
 
 
 
Автор Сообщение

torrentc.info

Создавать темы 18-Сен-2018 02:57

[Цитировать]

Удар / Пяткой в глаз / The Kick
Страна: Таиланд, Южная Корея
Жанр: боевые искусства
Год выхода: 2012
Продолжительность: 01:33:52
Перевод: Любительский (двухголосый закадровый)
Субтитры: нет
Режиссер: Прачья Пинкаю / Prachya Pinkaew
В ролях: К. Ким, Джи Йе, Йанин Висмитананда, Брахим Ачаббаке, Оливия Джексон, Петчтай Вонгкамлао, Ким Зэн, Нга Син, Джуна Минг
Описание: У Муна, учителя таэквондо, своя школа в Бангкоке. Все пять членов его семьи также являются мастерами таэвондо в различных стилях: у его жены Юн кулинарный стиль, у сына Таэдзю танцевальный стиль, у дочери Таэми — футбольный, и а младший Тайфун может своим сильным лбом сломать всё, что угодно. Мун хочет, чтобы его дети стали тренерами и в будущем занялись его школой. Однако, вопреки желанию отца, Таэдзю хочет стать известным танцором, а Таэми интересует только её тайный школьный возлюбленный. Однажды семья случайно сталкивается на улице с грабителями и по стечению обстоятельств вступает с ними бой. Используя свои удивительные навыки в боевых искусствах, они избивают грабителей и отбирают украденные сокровища. Сбегает только Пом, дрожащий от ярости главарь грабителей, совершивший в своё время множество преступлений. Семья таэквондистов становится популярной среди населения. Но они не догадываются о том, что Пом жаждет мести.

Сэмпл: http://multi-up.com/1209189
Качество видео: HDRip (Источник: Torrentc BDRip 1080p)
Формат файла: AVI
Видео: XviD 73, 720x400, (16:9), 24,000 fps, 1852 Кбит/с, 8 бит, 0.27 bit/pixel
Аудио: Русский (АС3, 6 ch (Front: L C R, Side: L R, LFE), 48,0 KHz, 384 Kbps)

MediaInfo

ОбщееПолное имя : D:\Удар (боевые искусства 2012 год).aviФормат файла : AVIФормат файла/Информация : Audio Video InterleaveРазмер файла : 1,47 ГбайтПродолжительность : 1 ч. 33 м.Общий поток : 2245 Кбит/секПрограмма кодирования : VirtualDubMod 1.5.10.2 (build 2540/release)Библиотека кодирования : VirtualDubMod build 2540/release
ВидеоИдентификатор : 0Формат файла : MPEG-4 VisualПрофиль формата : Advanced Simple@L5Параметр BVOP формата : 2Параметр QPel формата : НетПараметр GMC формата : Без точки переходаПараметр матрицы формата : ВыборочнаяИдентификатор кодека : XVIDИдентификатор кодека/Подсказка : XviDПродолжительность : 1 ч. 33 м.Битрейт : 1852 Кбит/секШирина : 720 пикселейВысота : 400 пикселейСоотношение сторон : 16:9Частота кадров : 24,000 кадра/секЦветовое пространство : YUVСубдискретизация насыщенности : 4:2:0Битовая глубина : 8 битТип развёртки : ПрогрессивнаяМетод сжатия : С потерямиБит/(Пиксели*Кадры) : 0.268Размер потока : 1,21 Гбайт (82%)Библиотека кодирования : XviD 73
АудиоИдентификатор : 1Формат файла : AC-3Формат файла/Информация : Audio Coding 3Расширение режима : CM (complete main)Параметр Endianness формата : BigИдентификатор кодека : 2000Продолжительность : 1 ч. 33 м.Вид битрейта : ПостоянныйБитрейт : 384 Кбит/секКаналы : 6 каналовРасположение каналов : Front: L C R, Side: L R, LFEЧастота : 48,0 КГцЧастота кадров : 31,250 кадров/сек (1536 spf)Метод сжатия : С потерямиРазмер потока : 258 Мбайт (17%)Выравнивание : Разделение по промежуткамПродолжительность промежутка : 42 мс. (1,00 видеокадр)Время предзагрузки промежутка : 500 мс.

Скриншоты



[torrentc.info]_t_5614874.torrent
Торрент: Зарегистрирован ·  [ 2018-09-18 02:54 ] ·  5fb0ad627923612058e3d75385ebbea48b88547a

15 KB

Статус: проверено
Скачан: 0 раз
Размер: 1.47 GB
Оценка: 
(Голосов: 0)
Сказали спасибо: 0  Спасибо
Похожие темы
[Профиль]    [ЛС]
Показать сообщения:    
Ответить на тему

Текущее время: Сегодня 12:19

Часовой пояс: GMT + 7



Вы не можете начинать темы
Вы не можете отвечать на сообщения
Вы не можете редактировать свои сообщения
Вы не можете удалять свои сообщения
Вы не можете голосовать в опросах
Вы не можете прикреплять файлы к сообщениям
Вы можете скачивать файлы