(Vocal Jazz) [CD] Nina Simone - The Colpix Singles (1959-1963) (2CD) - 2018, FLAC (tracks+.cue), lossless

Ответить на тему
Статистика раздачи [Обновить пиров]
Размер:  297 MB   |    Зарегистрирован:  2 месяца 25 дней   |    Скачан:  0 раз

Полного источника не было: Никогда

 
   
 
 
 
Автор Сообщение

torrentc.info

Создавать темы 17-Сен-2018 22:49

[Цитировать]

Nina Simone - The Colpix Singles
Жанр: Vocal Jazz
Носитель: CD
Страна-производитель диска (релиза): EU
Год издания: 2018
Издатель (лейбл): Stateside/Parlophone
Номер по каталогу: 0190295735869
Аудиокодек: FLAC (*.flac)
Тип рипа: tracks+.cue
Битрейт аудио: lossless
Продолжительность: 1:18:12
Источник (релизер): meuler
Наличие сканов в содержимом раздачи: нет

CD1 {42:53}

01. Chilly Winds Don't Blow (2:46)
02. Solitaire (3:24)
03. Children Go Where I Send You (2:49)
04. Willow Weep for Me (3:10)
05. The Other Woman (2:57)
06. It Might as Well Be Spring (3:16)
07. Summertime (2:51)
08. Fine and Mellow (3:25)
09. Since My Love Has Gone (2:48)
10. Tomorrow (We Will Meet Once More) (3:03)
11. Under the Lowest (short version) (3:10)
12. If Only for Tonight (3:03)
13. Nobody Knows You When You're Down and Out (2:40)
14. Black Is the Color of My True Love's Hair (3:31)

Лог создания рипа

Exact Audio Copy V1.3 from 2. September 2016
EAC extraction logfile from 9. September 2018, 22:03
Nina Simone / The Colpix Singles
Used drive : TSSTcorpDVD-ROM SH-118CB Adapter: 1 ID: 0
Read mode : SecureUtilize accurate stream : YesDefeat audio cache : YesMake use of C2 pointers : No
Read offset correction : 6Overread into Lead-In and Lead-Out : NoFill up missing offset samples with silence : YesDelete leading and trailing silent blocks : NoNull samples used in CRC calculations : YesUsed interface : Native Win32 interface for Win NT & 2000Gap handling : Appended to previous track
Used output format : User Defined EncoderSelected bitrate : 1024 kBit/sQuality : HighAdd ID3 tag : NoCommand line compressor : C:\Program Files (x86)\FLAC\flac-1.3.2-win\win64\flac.exeAdditional command line options : -8 -e -p -V -T "ARTIST=%artist%" -T "TITLE=%title%" -T "ALBUM=%albumtitle%" -T "DATE=%year%" -T "TRACKNUMBER=%tracknr%" -T "GENRE=%genre%" -T "PERFORMER=%albuminterpret%" -T "COMPOSER=%composer%" %haslyrics%--tag-from-file=LYRICS="%lyricsfile%"%haslyrics% -T "ALBUMARTIST=%albumartist%" -T "DISCNUMBER=%cdnumber%" -T "TOTALDISCS=%totalcds%" -T "TOTALTRACKS=%numtracks%" -T "COMMENT=%comment%" %source% -o %dest%
TOC of the extracted CD
Track | Start | Length | Start sector | End sector --------------------------------------------------------- 1 | 0:00.00 | 2:46.34 | 0 | 12483 2 | 2:46.34 | 3:24.09 | 12484 | 27792 3 | 6:10.43 | 2:49.15 | 27793 | 40482 4 | 8:59.58 | 3:10.11 | 40483 | 54743 5 | 12:09.69 | 2:57.23 | 54744 | 68041 6 | 15:07.17 | 3:16.06 | 68042 | 82747 7 | 18:23.23 | 2:50.43 | 82748 | 95540 8 | 21:13.66 | 3:24.53 | 95541 | 110893 9 | 24:38.44 | 2:48.10 | 110894 | 123503 10 | 27:26.54 | 3:02.42 | 123504 | 137195 11 | 30:29.21 | 3:09.65 | 137196 | 151435 12 | 33:39.11 | 3:02.54 | 151436 | 165139 13 | 36:41.65 | 2:40.10 | 165140 | 177149 14 | 39:22.00 | 3:31.31 | 177150 | 193005
Track 1
Filename D:\Nina Simone - The Colpix Singles\Disc 1\01 - Chilly Winds Don't Blow.wav
Pre-gap length 0:00:02.00
Peak level 94.9 % Extraction speed 0.5 X Track quality 100.0 % Test CRC CD307DD7 Copy CRC CD307DD7 Accurately ripped (confidence 3) [F35463A8] (AR v2) Copy OK
Track 2
Filename D:\Nina Simone - The Colpix Singles\Disc 1\02 - Solitaire.wav
Peak level 89.7 % Extraction speed 0.5 X Track quality 100.0 % Test CRC DF1CF098 Copy CRC DF1CF098 Accurately ripped (confidence 3) [9BBDCDBF] (AR v2) Copy OK
Track 3
Filename D:\Nina Simone - The Colpix Singles\Disc 1\03 - Children Go Where I Send You.wav
Peak level 84.2 % Extraction speed 0.6 X Track quality 100.0 % Test CRC 53184746 Copy CRC 53184746 Accurately ripped (confidence 3) [C3B0FB3E] (AR v2) Copy OK
Track 4
Filename D:\Nina Simone - The Colpix Singles\Disc 1\04 - Willow Weep For Me.wav
Peak level 80.3 % Extraction speed 0.6 X Track quality 100.0 % Test CRC BC295F0C Copy CRC BC295F0C Accurately ripped (confidence 3) [9DDA0E77] (AR v2) Copy OK
Track 5
Filename D:\Nina Simone - The Colpix Singles\Disc 1\05 - The Other Woman.wav
Peak level 85.7 % Extraction speed 0.6 X Track quality 99.9 % Test CRC F69C354C Copy CRC F69C354C Accurately ripped (confidence 3) [CAA709A5] (AR v2) Copy OK
Track 6
Filename D:\Nina Simone - The Colpix Singles\Disc 1\06 - It Might As Well Be Spring.wav
Peak level 73.5 % Extraction speed 0.7 X Track quality 100.0 % Test CRC 07321CF3 Copy CRC 07321CF3 Accurately ripped (confidence 3) [6D4E166A] (AR v2) Copy OK
Track 7
Filename D:\Nina Simone - The Colpix Singles\Disc 1\07 - Summertime.wav
Peak level 94.9 % Extraction speed 0.7 X Track quality 100.0 % Test CRC 109CB87B Copy CRC 109CB87B Accurately ripped (confidence 3) [FFA2313C] (AR v2) Copy OK
Track 8
Filename D:\Nina Simone - The Colpix Singles\Disc 1\08 - Fine And Mellow.wav
Peak level 94.9 % Extraction speed 0.8 X Track quality 100.0 % Test CRC 5A94833E Copy CRC 5A94833E Accurately ripped (confidence 3) [2EAC43E8] (AR v2) Copy OK
Track 9
Filename D:\Nina Simone - The Colpix Singles\Disc 1\09 - Since My Love Has Gone.wav
Peak level 83.5 % Extraction speed 0.8 X Track quality 100.0 % Test CRC E3E4187F Copy CRC E3E4187F Accurately ripped (confidence 3) [5586BEFC] (AR v2) Copy OK
Track 10
Filename D:\Nina Simone - The Colpix Singles\Disc 1\10 - Tomorrow (We Will Meet Once More).wav
Peak level 82.3 % Extraction speed 0.7 X Track quality 99.9 % Test CRC BA3CA6E6 Copy CRC BA3CA6E6 Accurately ripped (confidence 3) [15B5539C] (AR v2) Copy OK
Track 11
Filename D:\Nina Simone - The Colpix Singles\Disc 1\11 - Under The Lowest (short version).wav
Peak level 94.9 % Extraction speed 0.7 X Track quality 99.9 % Test CRC E681C04D Copy CRC E681C04D Accurately ripped (confidence 3) [EB10BB27] (AR v2) Copy OK
Track 12
Filename D:\Nina Simone - The Colpix Singles\Disc 1\12 - If Only For Tonight.wav
Peak level 82.3 % Extraction speed 0.9 X Track quality 100.0 % Test CRC 8ED73FB7 Copy CRC 8ED73FB7 Accurately ripped (confidence 3) [9465B1C5] (AR v2) Copy OK
Track 13
Filename D:\Nina Simone - The Colpix Singles\Disc 1\13 - Nobody Knows You When You're Down And Out.wav
Peak level 76.0 % Extraction speed 0.9 X Track quality 100.0 % Test CRC E055A931 Copy CRC E055A931 Accurately ripped (confidence 3) [0C05EBB3] (AR v2) Copy OK
Track 14
Filename D:\Nina Simone - The Colpix Singles\Disc 1\14 - Black Is The Color Of My True Love's Hair.wav
Peak level 94.9 % Extraction speed 1.0 X Track quality 100.0 % Test CRC 521F87F1 Copy CRC 521F87F1 Accurately ripped (confidence 3) [D6F5067A] (AR v2) Copy OK
All tracks accurately ripped
No errors occurred
End of status report
---- CUETools DB Plugin V2.1.6
[CTDB TOCID: 7so3RyGQyiJHBhjxxmkRs3LFQnQ-] foundSubmit result: 7so3RyGQyiJHBhjxxmkRs3LFQnQ- has been confirmedTrack | CTDB Status 1 | (15/15) Accurately ripped 2 | (15/15) Accurately ripped 3 | (15/15) Accurately ripped 4 | (15/15) Accurately ripped 5 | (15/15) Accurately ripped 6 | (15/15) Accurately ripped 7 | (15/15) Accurately ripped 8 | (15/15) Accurately ripped 9 | (15/15) Accurately ripped 10 | (15/15) Accurately ripped 11 | (15/15) Accurately ripped 12 | (15/15) Accurately ripped 13 | (15/15) Accurately ripped 14 | (15/15) Accurately ripped
==== Log checksum 5CEA8ADDBE0B549781E848502568081EB41889DE09932087D319C392C257AE2E ====

Содержание индексной карты (.CUE)

REM GENRE JazzREM DATE 2018REM DISCID A20A0D0EREM COMMENT "ExactAudioCopy v1.3"CATALOG 0603497860890PERFORMER "Nina Simone"TITLE "The Colpix Singles CD1"FILE "01 - Chilly Winds Don't Blow.wav" WAVE TRACK 01 AUDIO TITLE "Chilly Winds Don't Blow" PERFORMER "Nina Simone" ISRC GBAYE1704657 INDEX 01 00:00:00FILE "02 - Solitaire.wav" WAVE TRACK 02 AUDIO TITLE "Solitaire" PERFORMER "Nina Simone" ISRC GBAYE1704658 INDEX 01 00:00:00FILE "03 - Children Go Where I Send You.wav" WAVE TRACK 03 AUDIO TITLE "Children Go Where I Send You" PERFORMER "Nina Simone" ISRC GBAYE1704659 INDEX 01 00:00:00FILE "04 - Willow Weep for Me.wav" WAVE TRACK 04 AUDIO TITLE "Willow Weep for Me" PERFORMER "Nina Simone" ISRC GBAYE1704660 INDEX 01 00:00:00FILE "05 - The Other Woman.wav" WAVE TRACK 05 AUDIO TITLE "The Other Woman" PERFORMER "Nina Simone" ISRC GBAYE1704661 INDEX 01 00:00:00FILE "06 - It Might as Well Be Spring.wav" WAVE TRACK 06 AUDIO TITLE "It Might as Well Be Spring" PERFORMER "Nina Simone" ISRC GBAYE1704662 INDEX 01 00:00:00FILE "07 - Summertime.wav" WAVE TRACK 07 AUDIO TITLE "Summertime" PERFORMER "Nina Simone" ISRC GBAYE1704662 INDEX 01 00:00:00FILE "08 - Fine and Mellow.wav" WAVE TRACK 08 AUDIO TITLE "Fine and Mellow" PERFORMER "Nina Simone" ISRC GBAYE1704664 INDEX 01 00:00:00FILE "09 - Since My Love Has Gone.wav" WAVE TRACK 09 AUDIO TITLE "Since My Love Has Gone" PERFORMER "Nina Simone" ISRC GBAYE1704665 INDEX 01 00:00:00FILE "10 - Tomorrow (We Will Meet Once More).wav" WAVE TRACK 10 AUDIO TITLE "Tomorrow (We Will Meet Once More)" PERFORMER "Nina Simone" ISRC GBAYE1704665 INDEX 01 00:00:00FILE "11 - Under the Lowest (short version).wav" WAVE TRACK 11 AUDIO TITLE "Under the Lowest (short version)" PERFORMER "Nina Simone" ISRC GBAYE1704666 INDEX 01 00:00:00FILE "12 - If Only for Tonight.wav" WAVE TRACK 12 AUDIO TITLE "If Only for Tonight" PERFORMER "Nina Simone" ISRC GBAYE1704668 INDEX 01 00:00:00FILE "13 - Nobody Knows You When You're Down and Out.wav" WAVE TRACK 13 AUDIO TITLE "Nobody Knows You When You're Down and Out" PERFORMER "Nina Simone" ISRC GBAYE1704669 INDEX 01 00:00:00FILE "14 - Black Is the Color of My True Love's Hair.wav" WAVE TRACK 14 AUDIO TITLE "Black Is the Color of My True Love's Hair" PERFORMER "Nina Simone" ISRC GBAYE1704670 INDEX 01 00:00:00

Отчет CUETools

[CUETools log; Date: 10.09.2018 12:14:12; Version: 2.1.5][CTDB TOCID: 7so3RyGQyiJHBhjxxmkRs3LFQnQ-] found.Track | CTDB Status 1 | (16/16) Accurately ripped 2 | (16/16) Accurately ripped 3 | (16/16) Accurately ripped 4 | (16/16) Accurately ripped 5 | (16/16) Accurately ripped 6 | (16/16) Accurately ripped 7 | (16/16) Accurately ripped 8 | (16/16) Accurately ripped 9 | (16/16) Accurately ripped 10 | (16/16) Accurately ripped 11 | (16/16) Accurately ripped 12 | (16/16) Accurately ripped 13 | (16/16) Accurately ripped 14 | (16/16) Accurately ripped[AccurateRip ID: 0015f9a1-00eaa394-a20a0d0e] found.Track [ CRC | V2 ] Status 01 [9b8f1f0c|f35463a8] (0+3/6) Accurately ripped 02 [eac97b74|9bbdcdbf] (0+3/6) Accurately ripped 03 [9249b30b|c3b0fb3e] (0+3/6) Accurately ripped 04 [bf3d3c85|9dda0e77] (0+3/6) Accurately ripped 05 [54e42102|caa709a5] (0+3/6) Accurately ripped 06 [3cfa5266|6d4e166a] (0+3/6) Accurately ripped 07 [374faf98|ffa2313c] (0+3/6) Accurately ripped 08 [86a876ac|2eac43e8] (0+3/6) Accurately ripped 09 [ff4adcc1|5586befc] (0+3/6) Accurately ripped 10 [226f7033|15b5539c] (0+3/6) Accurately ripped 11 [56a8c399|eb10bb27] (0+3/6) Accurately ripped 12 [72ecae2a|9465b1c5] (0+3/6) Accurately ripped 13 [dff7706e|0c05ebb3] (0+3/6) Accurately ripped 14 [89355085|d6f5067a] (0+3/6) Accurately rippedOffsetted by -12: 01 [8dcf6ec5] (0/6) No match (V2 was not tested) 02 [4bf52943] (0/6) No match (V2 was not tested) 03 [729cb25c] (0/6) No match (V2 was not tested) 04 [9dec3b8e] (0/6) No match (V2 was not tested) 05 [73ca8b83] (0/6) No match (V2 was not tested) 06 [0358798d] (0/6) No match (V2 was not tested) 07 [0a3e4081] (0/6) No match (V2 was not tested) 08 [c4fe7884] (0/6) No match (V2 was not tested) 09 [b4c0cc3b] (0/6) No match (V2 was not tested) 10 [0a4bd790] (0/6) No match (V2 was not tested) 11 [00e65288] (0/6) No match (V2 was not tested) 12 [94981673] (0/6) No match (V2 was not tested) 13 [3c110f1d] (0/6) No match (V2 was not tested) 14 [17398315] (0/6) No match (V2 was not tested)
Track Peak [ CRC32 ] [W/O NULL] [ LOG ] -- 94,9 [090F69D7] [A80CC7DA] 01 94,9 [CD307DD7] [DE722529] CRC32 02 89,7 [DF1CF098] [085DEA4F] CRC32 03 84,2 [53184746] [D7FEA1A4] CRC32 04 80,3 [BC295F0C] [E08768E0] CRC32 05 85,7 [F69C354C] [98969366] CRC32 06 73,5 [07321CF3] [8A8B869D] CRC32 07 94,9 [109CB87B] [F8EB7E76] CRC32 08 94,9 [5A94833E] [8CA8F397] CRC32 09 83,5 [E3E4187F] [64B84AE5] CRC32 10 82,3 [BA3CA6E6] [362F3D48] CRC32 11 94,9 [E681C04D] [9320FDFA] CRC32 12 82,3 [8ED73FB7] [4891A3FA] CRC32 13 76,0 [E055A931] [5006FC8C] CRC32 14 94,9 [521F87F1] [84F62458] CRC32

CD2 {35:18}

01. Trouble in Mind (2:11)
02. Cotton Eyed Joe (2:51)
03. Work Song (2:07)
04. Memphis in June (2:39)
05. You Can Have Him (3:37)
06. Gin House Blues (2:26)
07. Come on Back Jack (2:16)
08. You've Been Gone Too Long (2:11)
09. In the Evening by the Moonlight (2:13)
10. I Want a Little Sugar in My Bowl (2:44)
11. I Got It Bad (And That Ain't Good) (3:38)
12. Little Liza Jane (2:31)
13. Blackbird (3:54)

Лог создания рипа

Exact Audio Copy V1.3 from 2. September 2016
EAC extraction logfile from 9. September 2018, 19:57
Nina Simone / The Colpix Singles
Used drive : TSSTcorpDVD-ROM SH-118CB Adapter: 1 ID: 0
Read mode : SecureUtilize accurate stream : YesDefeat audio cache : YesMake use of C2 pointers : No
Read offset correction : 6Overread into Lead-In and Lead-Out : NoFill up missing offset samples with silence : YesDelete leading and trailing silent blocks : NoNull samples used in CRC calculations : YesUsed interface : Native Win32 interface for Win NT & 2000Gap handling : Appended to previous track
Used output format : User Defined EncoderSelected bitrate : 1024 kBit/sQuality : HighAdd ID3 tag : NoCommand line compressor : C:\Program Files (x86)\FLAC\flac-1.3.2-win\win64\flac.exeAdditional command line options : -8 -e -p -V -T "ARTIST=%artist%" -T "TITLE=%title%" -T "ALBUM=%albumtitle%" -T "DATE=%year%" -T "TRACKNUMBER=%tracknr%" -T "GENRE=%genre%" -T "PERFORMER=%albuminterpret%" -T "COMPOSER=%composer%" %haslyrics%--tag-from-file=LYRICS="%lyricsfile%"%haslyrics% -T "ALBUMARTIST=%albumartist%" -T "DISCNUMBER=%cdnumber%" -T "TOTALDISCS=%totalcds%" -T "TOTALTRACKS=%numtracks%" -T "COMMENT=%comment%" %source% -o %dest%
TOC of the extracted CD
Track | Start | Length | Start sector | End sector --------------------------------------------------------- 1 | 0:00.00 | 2:10.70 | 0 | 9819 2 | 2:10.70 | 2:51.21 | 9820 | 22665 3 | 5:02.16 | 2:07.01 | 22666 | 32191 4 | 7:09.17 | 2:39.29 | 32192 | 44145 5 | 9:48.46 | 3:36.41 | 44146 | 60386 6 | 13:25.12 | 2:26.02 | 60387 | 71338 7 | 15:51.14 | 2:15.40 | 71339 | 81503 8 | 18:06.54 | 2:11.14 | 81504 | 91342 9 | 20:17.68 | 2:12.39 | 91343 | 101281 10 | 22:30.32 | 2:44.17 | 101282 | 113598 11 | 25:14.49 | 3:38.33 | 113599 | 129981 12 | 28:53.07 | 2:30.48 | 129982 | 141279 13 | 31:23.55 | 3:54.32 | 141280 | 158861
Track 1
Filename D:\Nina Simone - The Colpix Singles\Disc 2\01 - Trouble In Mind.wav
Pre-gap length 0:00:02.00
Peak level 72.2 % Extraction speed 0.4 X Track quality 100.0 % Test CRC 070CFBF6 Copy CRC 070CFBF6 Accurately ripped (confidence 2) [DFD79478] (AR v2) Copy OK
Track 2
Filename D:\Nina Simone - The Colpix Singles\Disc 2\02 - Cotton Eyed Joe.wav
Peak level 87.3 % Extraction speed 0.4 X Track quality 99.9 % Test CRC 5E05F0DB Copy CRC 5E05F0DB Accurately ripped (confidence 2) [3988F2C1] (AR v2) Copy OK
Track 3
Filename D:\Nina Simone - The Colpix Singles\Disc 2\03 - Work Song.wav
Peak level 85.7 % Extraction speed 0.5 X Track quality 100.0 % Test CRC 3CF02EBB Copy CRC 3CF02EBB Accurately ripped (confidence 2) [5857354D] (AR v2) Copy OK
Track 4
Filename D:\Nina Simone - The Colpix Singles\Disc 2\04 - Memphis In June.wav
Peak level 60.1 % Extraction speed 0.6 X Track quality 100.0 % Test CRC 5A901DE2 Copy CRC 5A901DE2 Accurately ripped (confidence 2) [1FAE160B] (AR v2) Copy OK
Track 5
Filename D:\Nina Simone - The Colpix Singles\Disc 2\05 - You Can Have Him.wav
Peak level 66.1 % Extraction speed 0.7 X Track quality 100.0 % Test CRC AF090419 Copy CRC AF090419 Accurately ripped (confidence 2) [649CCBAE] (AR v2) Copy OK
Track 6
Filename D:\Nina Simone - The Colpix Singles\Disc 2\06 - Gin House Blues.wav
Peak level 67.1 % Extraction speed 0.6 X Track quality 100.0 % Test CRC 1A2F06D1 Copy CRC 1A2F06D1 Accurately ripped (confidence 2) [FEA5E1B3] (AR v2) Copy OK
Track 7
Filename D:\Nina Simone - The Colpix Singles\Disc 2\07 - Come On Back Jack.wav
Peak level 69.9 % Extraction speed 0.7 X Track quality 100.0 % Test CRC 24E2BCC5 Copy CRC 24E2BCC5 Accurately ripped (confidence 2) [BD2925B6] (AR v2) Copy OK
Track 8
Filename D:\Nina Simone - The Colpix Singles\Disc 2\08 - You've Been Gone Too Long.wav
Peak level 81.9 % Extraction speed 0.7 X Track quality 100.0 % Test CRC 23A9357D Copy CRC 23A9357D Accurately ripped (confidence 2) [67285CC5] (AR v2) Copy OK
Track 9
Filename D:\Nina Simone - The Colpix Singles\Disc 2\09 - In The Evening By The Moonlight.wav
Peak level 65.3 % Extraction speed 0.7 X Track quality 100.0 % Test CRC 8C687579 Copy CRC 8C687579 Accurately ripped (confidence 2) [C2F42C9B] (AR v2) Copy OK
Track 10
Filename D:\Nina Simone - The Colpix Singles\Disc 2\10 - I Want A Little Sugar In My Bowl.wav
Peak level 83.5 % Extraction speed 0.8 X Track quality 100.0 % Test CRC 366A0084 Copy CRC 366A0084 Accurately ripped (confidence 2) [3874435F] (AR v2) Copy OK
Track 11
Filename D:\Nina Simone - The Colpix Singles\Disc 2\11 - I Got It Bad (And That Ain't Good).wav
Peak level 73.4 % Extraction speed 0.7 X Track quality 99.9 % Test CRC 34A57306 Copy CRC 34A57306 Accurately ripped (confidence 2) [06902A2D] (AR v2) Copy OK
Track 12
Filename D:\Nina Simone - The Colpix Singles\Disc 2\12 - Little Liza Jane.wav
Peak level 93.0 % Extraction speed 0.8 X Track quality 100.0 % Test CRC F0BBCC3D Copy CRC F0BBCC3D Accurately ripped (confidence 2) [D1FC5B32] (AR v2) Copy OK
Track 13
Filename D:\Nina Simone - The Colpix Singles\Disc 2\13 - Blackbird.wav
Peak level 94.9 % Extraction speed 0.9 X Track quality 100.0 % Test CRC BB4EE373 Copy CRC BB4EE373 Accurately ripped (confidence 2) [C2BAB3AE] (AR v2) Copy OK
All tracks accurately ripped
No errors occurred
End of status report
---- CUETools DB Plugin V2.1.6
[CTDB TOCID: O5Ixfg0OE.398m.GRZHmI7AIbdM-] foundSubmit result: O5Ixfg0OE.398m.GRZHmI7AIbdM- has been confirmedTrack | CTDB Status 1 | (14/14) Accurately ripped 2 | (14/14) Accurately ripped 3 | (14/14) Accurately ripped 4 | (14/14) Accurately ripped 5 | (14/14) Accurately ripped 6 | (14/14) Accurately ripped 7 | (14/14) Accurately ripped 8 | (14/14) Accurately ripped 9 | (14/14) Accurately ripped 10 | (14/14) Accurately ripped 11 | (14/14) Accurately ripped 12 | (14/14) Accurately ripped 13 | (14/14) Accurately ripped
==== Log checksum B2C0BCA55E742848C8842CB150C7B25511911A8C72E11FE9D04761DCEDA51788 ====

Содержание индексной карты (.CUE)

REM GENRE JazzREM DATE 2018REM DISCID A108460DREM COMMENT "ExactAudioCopy v1.3"CATALOG 0603497860890PERFORMER "Nina Simone"TITLE "The Colpix Singles CD2"FILE "01 - Trouble in Mind.wav" WAVE TRACK 01 AUDIO TITLE "Trouble in Mind" PERFORMER "Nina Simone" ISRC GBAYE1704671 INDEX 01 00:00:00FILE "02 - Cotton Eyed Joe.wav" WAVE TRACK 02 AUDIO TITLE "Cotton Eyed Joe" PERFORMER "Nina Simone" ISRC GBAYE1704672 INDEX 01 00:00:00FILE "03 - Work Song.wav" WAVE TRACK 03 AUDIO TITLE "Work Song" PERFORMER "Nina Simone" ISRC GBAYE1704673 INDEX 01 00:00:00FILE "04 - Memphis in June.wav" WAVE TRACK 04 AUDIO TITLE "Memphis in June" PERFORMER "Nina Simone" ISRC GBAYE1704674 INDEX 01 00:00:00FILE "05 - You Can Have Him.wav" WAVE TRACK 05 AUDIO TITLE "You Can Have Him" PERFORMER "Nina Simone" ISRC GBAYE1704675 INDEX 01 00:00:00FILE "06 - Gin House Blues.wav" WAVE TRACK 06 AUDIO TITLE "Gin House Blues" PERFORMER "Nina Simone" ISRC GBAYE1704676 INDEX 01 00:00:00FILE "07 - Come on Back Jack.wav" WAVE TRACK 07 AUDIO TITLE "Come on Back Jack" PERFORMER "Nina Simone" ISRC GBAYE1704677 INDEX 01 00:00:00FILE "08 - You've Been Gone Too Long.wav" WAVE TRACK 08 AUDIO TITLE "You've Been Gone Too Long" PERFORMER "Nina Simone" ISRC GBAYE1704678 INDEX 01 00:00:00FILE "09 - In the Evening by the Moonlight.wav" WAVE TRACK 09 AUDIO TITLE "In the Evening by the Moonlight" PERFORMER "Nina Simone" ISRC GBAYE1704679 INDEX 01 00:00:00FILE "10 - I Want a Little Sugar in My Bowl.wav" WAVE TRACK 10 AUDIO TITLE "I Want a Little Sugar in My Bowl" PERFORMER "Nina Simone" ISRC GBAYE1704680 INDEX 01 00:00:00FILE "11 - I Got It Bad (And That Ain't Good).wav" WAVE TRACK 11 AUDIO TITLE "I Got It Bad (And That Ain't Good)" PERFORMER "Nina Simone" ISRC GBAYE1704680 INDEX 01 00:00:00FILE "12 - Little Liza Jane.wav" WAVE TRACK 12 AUDIO TITLE "Little Liza Jane" PERFORMER "Nina Simone" ISRC GBAYE1704682 INDEX 01 00:00:00FILE "13 - Blackbird.wav" WAVE TRACK 13 AUDIO TITLE "Blackbird" PERFORMER "Nina Simone" ISRC GBAYE1704683 INDEX 01 00:00:00

Отчет CUETools

[CUETools log; Date: 10.09.2018 12:14:15; Version: 2.1.5][CTDB TOCID: O5Ixfg0OE.398m.GRZHmI7AIbdM-] found.Track | CTDB Status 1 | (15/15) Accurately ripped 2 | (15/15) Accurately ripped 3 | (15/15) Accurately ripped 4 | (15/15) Accurately ripped 5 | (15/15) Accurately ripped 6 | (15/15) Accurately ripped 7 | (15/15) Accurately ripped 8 | (15/15) Accurately ripped 9 | (15/15) Accurately ripped 10 | (15/15) Accurately ripped 11 | (15/15) Accurately ripped 12 | (15/15) Accurately ripped 13 | (15/15) Accurately ripped[AccurateRip ID: 00102662-00a2986c-a108460d] found.Track [ CRC | V2 ] Status 01 [e6b8536b|dfd79478] (0+2/4) Accurately ripped 02 [36eee0c8|3988f2c1] (0+2/4) Accurately ripped 03 [109603f1|5857354d] (0+2/4) Accurately ripped 04 [dd37054d|1fae160b] (0+2/4) Accurately ripped 05 [612377d0|649ccbae] (0+2/4) Accurately ripped 06 [f3a37f03|fea5e1b3] (0+2/4) Accurately ripped 07 [7823870c|bd2925b6] (0+2/4) Accurately ripped 08 [d73175dd|67285cc5] (0+2/4) Accurately ripped 09 [bea4ad33|c2f42c9b] (0+2/4) Accurately ripped 10 [494f3384|3874435f] (0+2/4) Accurately ripped 11 [e9ea1ebd|06902a2d] (0+2/4) Accurately ripped 12 [b2d91f24|d1fc5b32] (0+2/4) Accurately ripped 13 [153e1f28|c2bab3ae] (0+2/4) Accurately rippedOffsetted by -12: 01 [74ff648e] (0/4) No match (V2 was not tested) 02 [f6a5d4ab] (0/4) No match (V2 was not tested) 03 [ea29d564] (0/4) No match (V2 was not tested) 04 [b86b0981] (0/4) No match (V2 was not tested) 05 [7e32cb82] (0/4) No match (V2 was not tested) 06 [43e33ce7] (0/4) No match (V2 was not tested) 07 [44e165c5] (0/4) No match (V2 was not tested) 08 [19b8d7e0] (0/4) No match (V2 was not tested) 09 [f700cecf] (0/4) No match (V2 was not tested) 10 [3d93c51d] (0/4) No match (V2 was not tested) 11 [2647af56] (0/4) No match (V2 was not tested) 12 [d03c279c] (0/4) No match (V2 was not tested) 13 [79e84fab] (0/4) No match (V2 was not tested)
Track Peak [ CRC32 ] [W/O NULL] [ LOG ] -- 94,9 [33720945] [D57DEA4E] 01 72,1 [070CFBF6] [791ED2BB] CRC32 02 87,3 [5E05F0DB] [8AC82B07] CRC32 03 85,7 [3CF02EBB] [95361C22] CRC32 04 60,1 [5A901DE2] [0EBF9EF0] CRC32 05 66,1 [AF090419] [34FBF8F6] CRC32 06 67,1 [1A2F06D1] [D4D535EB] CRC32 07 69,9 [24E2BCC5] [78868A9D] CRC32 08 81,9 [23A9357D] [796BC10D] CRC32 09 65,3 [8C687579] [013397ED] CRC32 10 83,5 [366A0084] [1EEF2C68] CRC32 11 73,4 [34A57306] [8A19D127] CRC32 12 93,0 [F0BBCC3D] [27A88063] CRC32 13 94,9 [BB4EE373] [9E3DF105] CRC32

AllMusic Review by Mark Deming

When Nina Simone released her first recordings for Bethlehem Records in 1958, she sounded strikingly accomplished both as a singer and a pianist, displaying the skill and the inspiration of a seasoned veteran. However, her Bethlehem sides only captured one aspect of her musical personality, and as even the most cursory examination of Simone's career makes clear, she was an artist who stubbornly refused to be pigeonholed. After Simone learned her first lesson about the vagaries of the music business when her deal with Bethlehem went sour, she signed with the Colpix label, where she recorded from 1959 to 1964, a time when jazz artists still made occasional appearances on the pop charts. The Colpix Singles is a collection that brings together the monophonic 45-rpm mixes of the 14 7"s released during Simone's tenure with the label, and it makes for a reasonably thorough overview of her work for Colpix. Simone's Bethlehem sides were recorded simply with a small rhythm section, but at Colpix she had the resources for more polished production and significantly more elaborate arrangements, some of which honor her jazz and blues influences, while others sound like clear efforts to introduce her to a mainstream pop audience. Whatever the surroundings, Simone never sounds like anything other than herself; her voice is strong and confident, her phrasing brings out the many moods and meanings of these songs, and her piano work is virtuosic without calling undue attention to itself. Even when the backings sound treacly, Simone rarely makes an emotionally false move. Simone also cut four live albums for Colpix, and the samples of her concert performances are outstanding; the live tracks capture Simone in her element and in the moment, and preserve her brilliance in simple but mesmerizing form. Completists will be happy to know that seven of these songs appear in single edits and mixes that have never before appeared in digital format, and the remastering is clean and well executed. The Colpix Singles covers a time when Simone was still exploring the boundaries of her creative approach, and not long before activism became a key part of her music and her life; this is far from a definitive sampling of this period, but it does make clear just how fruitful it was.


[torrentc.info]_t_5611795.torrent
Торрент: Зарегистрирован ·  [ 2018-09-17 22:47 ] ·  8d4e74482de380a17637b83834f07f5a283ed127

15 KB

Статус: проверено
Скачан: 0 раз
Размер: 297 MB
Оценка: 
(Голосов: 0)
Сказали спасибо: 0  Спасибо
Похожие темы
[Профиль]    [ЛС]
Показать сообщения:    
Ответить на тему

Текущее время: Сегодня 01:52

Часовой пояс: GMT + 7



Вы не можете начинать темы
Вы не можете отвечать на сообщения
Вы не можете редактировать свои сообщения
Вы не можете удалять свои сообщения
Вы не можете голосовать в опросах
Вы не можете прикреплять файлы к сообщениям
Вы можете скачивать файлы