(Musical, Show) Cirque du Soleil (Toruk - The First Flight) - 2015, FLAC (tracks+.cue), lossless

Ответить на тему
Статистика раздачи [Обновить пиров]
Размер:  280 MB   |    Зарегистрирован:  1 месяц 7 дней   |    Скачан:  0 раз

Полного источника не было: Никогда

 
   
 
 
 
Автор Сообщение

torrentc.info

Создавать темы 15-Сен-2018 21:12

[Цитировать]

Cirque du Soleil
[img=right]https://i103.fastpic.ru/big/2018/0913/db/47ae8ee467...2581db.jpg[/img]
Название альбома: Toruk - The First Flight
Жанр: Musical, Show
Год выхода диска: 2015
Издатель (лейбл): Cirque du Soleil
Аудиокодек: FLAC (*.flac)
Тип рипа: tracks+.cue
Битрейт аудио: lossless
Продолжительность: 00:47:05
Источник: скачано с
сайт-источник/ник/другое: локальная сеть
Треклист:
1 Omaticaya Clan
2 Lu Aw Navi
3 Shaman Story
4 Tawkami Clan
5 The Anurai Clan Sanctuary
6 Viperwolves and the Tipani Clan
7 Direhorses
8 Kekunan Clan
9 Hallelujah Mountains
10 The Toruk
11 Luminous Reunion

Лог создания рипа

Exact Audio Copy V1.1 from 23. June 2015
EAC extraction logfile from 17. July 2016, 17:39
Cirque du Soleil / Toruk: The First Flight
Used drive : TSSTcorpCDDVDW SH-224BB Adapter: 1 ID: 0
Read mode : SecureUtilize accurate stream : YesDefeat audio cache : YesMake use of C2 pointers : No
Read offset correction : 6Overread into Lead-In and Lead-Out : NoFill up missing offset samples with silence : YesDelete leading and trailing silent blocks : NoNull samples used in CRC calculations : YesUsed interface : Native Win32 interface for Win NT & 2000Gap handling : Appended to previous track
Used output format : User Defined EncoderSelected bitrate : 896 kBit/sQuality : HighAdd ID3 tag : NoCommand line compressor : D:\system\Exact Audio Copy\EACPortable\App\EAC\FLAC\flac.exeAdditional command line options : -6 -V -T "ARTIST=%artist%" -T "TITLE=%title%" -T "ALBUM=%albumtitle%" -T "DATE=%year%" -T "TRACKNUMBER=%tracknr%" -T "GENRE=%genre%" -T "COMMENT=%comment%" %hascover%--picture="%coverfile%"%hascover% %source% -o %dest%
TOC of the extracted CD
Track | Start | Length | Start sector | End sector --------------------------------------------------------- 1 | 0:00.00 | 4:28.42 | 0 | 20141 2 | 4:28.42 | 4:37.62 | 20142 | 40978 3 | 9:06.29 | 4:40.28 | 40979 | 62006 4 | 13:46.57 | 4:02.53 | 62007 | 80209 5 | 17:49.35 | 4:22.32 | 80210 | 99891 6 | 22:11.67 | 4:17.47 | 99892 | 119213 7 | 26:29.39 | 4:21.63 | 119214 | 138851 8 | 30:51.27 | 4:00.28 | 138852 | 156879 9 | 34:51.55 | 3:17.50 | 156880 | 171704 10 | 38:09.30 | 4:47.04 | 171705 | 193233 11 | 42:56.34 | 4:09.22 | 193234 | 211930
Track 1
Filename D:\wave dumps\01 - Omaticaya Clan.wav
Pre-gap length 0:00:02.00
Peak level 95.9 % Extraction speed 3.6 X Track quality 99.9 % Test CRC C2362347 Copy CRC C2362347 Accurately ripped (confidence 1) [C4C3A573] (AR v2) Copy OK
Track 2
Filename D:\wave dumps\02 - Lu Aw Navi.wav
Peak level 95.9 % Extraction speed 4.9 X Track quality 100.0 % Test CRC 568F4B70 Copy CRC 568F4B70 Accurately ripped (confidence 1) [657C4FDC] (AR v2) Copy OK
Track 3
Filename D:\wave dumps\03 - Shaman Story.wav
Peak level 95.9 % Extraction speed 5.4 X Track quality 100.0 % Test CRC BDA12DE2 Copy CRC BDA12DE2 Accurately ripped (confidence 1) [AE01162E] (AR v2) Copy OK
Track 4
Filename D:\wave dumps\04 - Tawkami Clan.wav
Peak level 96.0 % Extraction speed 4.6 X Track quality 99.9 % Test CRC 806F1154 Copy CRC 806F1154 Accurately ripped (confidence 1) [F4B380B4] (AR v2) Copy OK
Track 5
Filename D:\wave dumps\05 - The Anurai Clan Sanctuary.wav
Peak level 95.9 % Extraction speed 6.2 X Track quality 100.0 % Test CRC 3CBB43B7 Copy CRC 3CBB43B7 Accurately ripped (confidence 1) [EA52C75E] (AR v2) Copy OK
Track 6
Filename D:\wave dumps\06 - Viperwolves and the Tipani Clan.wav
Peak level 95.9 % Extraction speed 5.3 X Track quality 99.9 % Test CRC 32C8CACD Copy CRC 32C8CACD Accurately ripped (confidence 1) [9BFB700D] (AR v2) Copy OK
Track 7
Filename D:\wave dumps\07 - Direhorses.wav
Peak level 95.9 % Extraction speed 6.9 X Track quality 100.0 % Test CRC 231140C3 Copy CRC 231140C3 Accurately ripped (confidence 1) [DEFD0C6B] (AR v2) Copy OK
Track 8
Filename D:\wave dumps\08 - Kekunan Clan.wav
Peak level 95.9 % Extraction speed 5.7 X Track quality 99.9 % Test CRC 4833FEBE Copy CRC 4833FEBE Accurately ripped (confidence 1) [D740D709] (AR v2) Copy OK
Track 9
Filename D:\wave dumps\09 - Hallelujah Mountains.wav
Peak level 96.0 % Extraction speed 7.1 X Track quality 100.0 % Test CRC C4BC548E Copy CRC C4BC548E Accurately ripped (confidence 1) [38EC0395] (AR v2) Copy OK
Track 10
Filename D:\wave dumps\10 - The Toruk.wav
Peak level 95.9 % Extraction speed 7.7 X Track quality 100.0 % Test CRC F4B523D9 Copy CRC F4B523D9 Accurately ripped (confidence 1) [0A4C5C57] (AR v2) Copy OK
Track 11
Filename D:\wave dumps\11 - Luminous Reunion.wav
Peak level 95.9 % Extraction speed 7.9 X Track quality 100.0 % Test CRC 7390FD72 Copy CRC 7390FD72 Accurately ripped (confidence 1) [10E659A2] (AR v2) Copy OK
All tracks accurately ripped
No errors occurred
End of status report
---- CUETools DB Plugin V2.1.6
[CTDB TOCID: K5TeHloOZdPF5_vni6Fo88Sh4B8-] foundSubmit result: K5TeHloOZdPF5_vni6Fo88Sh4B8- has been confirmedTrack | CTDB Status 1 | (7/7) Accurately ripped 2 | (7/7) Accurately ripped 3 | (7/7) Accurately ripped 4 | (7/7) Accurately ripped 5 | (7/7) Accurately ripped 6 | (7/7) Accurately ripped 7 | (7/7) Accurately ripped 8 | (7/7) Accurately ripped 9 | (7/7) Accurately ripped 10 | (7/7) Accurately ripped 11 | (7/7) Accurately ripped
==== Log checksum FBFD1BDC138993DC848815CA2A40DD5A935517D9D7397C6C6750A7C1977DBAA7 ====

Содержание индексной карты (.CUE)

REM GENRE EthnicREM DATE 2016REM DISCID 940B090BREM COMMENT "ExactAudioCopy v1.1"PERFORMER "Cirque du Soleil"TITLE "Toruk: The First Flight"FILE "01 - Omaticaya Clan.wav" WAVE TRACK 01 AUDIO TITLE "Omaticaya Clan" PERFORMER "Cirque du Soleil" ISRC CAC601520010 INDEX 01 00:00:00FILE "02 - Lu Aw Navi.wav" WAVE TRACK 02 AUDIO TITLE "Lu Aw Navi" PERFORMER "Cirque du Soleil" ISRC CAC601520020 INDEX 01 00:00:00FILE "03 - Shaman Story.wav" WAVE TRACK 03 AUDIO TITLE "Shaman Story" PERFORMER "Cirque du Soleil" ISRC CAC601520020 INDEX 01 00:00:00FILE "04 - Tawkami Clan.wav" WAVE TRACK 04 AUDIO TITLE "Tawkami Clan" PERFORMER "Cirque du Soleil" ISRC CAC601520040 INDEX 01 00:00:00FILE "05 - The Anurai Clan Sanctuary.wav" WAVE TRACK 05 AUDIO TITLE "The Anurai Clan Sanctuary" PERFORMER "Cirque du Soleil" ISRC CAC601520050 INDEX 01 00:00:00FILE "06 - Viperwolves and the Tipani Clan.wav" WAVE TRACK 06 AUDIO TITLE "Viperwolves and the Tipani Clan" PERFORMER "Cirque du Soleil" ISRC CAC601520060 INDEX 01 00:00:00FILE "07 - Direhorses.wav" WAVE TRACK 07 AUDIO TITLE "Direhorses" PERFORMER "Cirque du Soleil" ISRC CAC601520070 INDEX 01 00:00:00FILE "08 - Kekunan Clan.wav" WAVE TRACK 08 AUDIO TITLE "Kekunan Clan" PERFORMER "Cirque du Soleil" ISRC CAC601520080 INDEX 01 00:00:00FILE "09 - Hallelujah Mountains.wav" WAVE TRACK 09 AUDIO TITLE "Hallelujah Mountains" PERFORMER "Cirque du Soleil" ISRC CAC601520090 INDEX 01 00:00:00FILE "10 - The Toruk.wav" WAVE TRACK 10 AUDIO TITLE "The Toruk" PERFORMER "Cirque du Soleil" ISRC CAC601520100 INDEX 01 00:00:00FILE "11 - Luminous Reunion.wav" WAVE TRACK 11 AUDIO TITLE "Luminous Reunion" PERFORMER "Cirque du Soleil" ISRC CAC601520110 INDEX 01 00:00:00

Лог проверки качества

AUDIOCHECKER v2.0 beta (build 457) - by Dester - opdester@freemail.hu~~~~~~~~~~~~~~~~~~~~~~~~~~~~~~~~~~-=== DO NOT EDIT THIS FILE! ===-
Path: ...\Cirque du Soleil - Toruk - The First Flight (2015) - FLAC
01 -=- 01 - Omaticaya Clan.flac -=- CDDA (100%)02 -=- 02 - Lu Aw Navi.flac -=- CDDA (100%)03 -=- 03 - Shaman Story.flac -=- CDDA (100%)04 -=- 04 - Tawkami Clan.flac -=- CDDA (100%)05 -=- 05 - The Anurai Clan Sanctuary.flac -=- CDDA (100%)06 -=- 06 - Viperwolves and the Tipani Clan.flac -=- CDDA (100%)07 -=- 07 - Direhorses.flac -=- CDDA (100%)08 -=- 08 - Kekunan Clan.flac -=- CDDA (100%)09 -=- 09 - Hallelujah Mountains.flac -=- CDDA (100%)10 -=- 10 - The Toruk.flac -=- CDDA (100%)11 -=- 11 - Luminous Reunion.flac -=- CDDA (100%)
Summary 100,00% CDDA
212718868


[torrentc.info]_t_5613036.torrent
Торрент: Зарегистрирован ·  [ 2018-09-15 21:11 ] ·  1d2d5f2844ce83c11f8775b83ed978943ea2d7a8

12 KB

Статус: проверено
Скачан: 0 раз
Размер: 280 MB
Оценка: 
(Голосов: 0)
Сказали спасибо: 0  Спасибо
Похожие темы
[Профиль]    [ЛС]
Показать сообщения:    
Ответить на тему

Текущее время: Сегодня 05:55

Часовой пояс: GMT + 7



Вы не можете начинать темы
Вы не можете отвечать на сообщения
Вы не можете редактировать свои сообщения
Вы не можете удалять свои сообщения
Вы не можете голосовать в опросах
Вы не можете прикреплять файлы к сообщениям
Вы можете скачивать файлы