Госфорд парк / Gosford Park (Роберт Олтмен / Robert Altman) [2001, Великобритания, США, Италия, драма, трагикомедия, детектив, DVDRip] MVO + Original Eng

Ответить на тему
Статистика раздачи [Обновить пиров]
Размер:  1.46 GB   |    Зарегистрирован:  1 месяц 9 дней   |    Скачан:  0 раз

Полного источника не было: Никогда

 
   
 
 
 
Автор Сообщение

torrentc.info

Создавать темы 11-Сен-2018 01:48

[Цитировать]

Госфорд парк / Gosford Park
«Чай в четыре. Ужин в восемь. Убийство в полночь»
Страна: Великобритания , США , Италия
Жанр: драма, трагикомедия, детектив
Год выхода: 2001
Продолжительность: 02:11:20
Перевод: Профессиональный (многоголосый закадровый)
Субтитры: нет
Оригинальная аудиодорожка: английская
Режиссер: Роберт Олтмен / Robert Altman
В ролях: Мэгги Смит, Майкл Гэмбон, Кристин Скотт Томас, Стивен Фрай, Келли Макдоналд, Эмили Уотсон, Клайв Оуэн, Хелен Миррен, Райан Филипп, Ричард Э. Грант, Айлин Аткинс.
Описание: В пасмурный ноябрьский день 1932 года в имении сэра Уильяма МакКордала, поместье Госфорд Парк, собираются гости: родственники и друзья, аристократы и знаменитости. Посетители сэра Уильяма намереваются провести несколько дней, наслаждаясь роскошью жилища, отдав привычную дань изысканному чревоугодию и великосветским ритуалам.
Все готово к очередному шикарному и томному празднику беспечных прожигателей жизни. Но внезапно хозяина дома находят мертвым, и, что самое неприятное, кто-то поспособствовал его внезапной встрече со Всевышним…
[img]https://rating.kinopoisk.ru/683.gif[/img]
Доп. информация: Источник: Torrentc - DVD9 от [url=profile.php?mode=viewprofile&u=1244899]Astaria[/url], релизеру большое спасибо
Особая благодарность - за оцифровку пиратской VHS из собственной коллекции - [url=profile.php?mode=viewprofile&u=41165087]Hel_ka67[/url]
DVDRip и работа со звуком - [url=profile.php?mode=viewprofile&u=12431118]Arle-kino[/url]

Качество видео: DVDRip
Формат файла: AVI
Видео: 720x400 (1.80:1), 25 fps, XviD build 50 ~1190 kbps avg, 0.17 bit/pixel
Аудио 1: 48 kHz, AC3 Dolby Digital, 2/0 (L,R) ch, ~192 kbps - Rus
Аудио 2: 48 kHz, AC3 Dolby Digital, 2/0 (L,R) ch, ~192 kbps - Eng

MediaInfo

GeneralComplete name : D:\Public\Gosford Park (2001) DVDRip [Rus, Eng].aviFormat : AVIFormat/Info : Audio Video InterleaveFile size : 1.46 GiBDuration : 2 h 11 minOverall bit rate : 1 590 kb/sWriting application : VirtualDubMod 1.5.10.2 (build 2540/release)Writing library : VirtualDubMod build 2540/release
VideoID : 0Format : MPEG-4 VisualFormat profile : Advanced Simple@L5Format settings, BVOP : 1Format settings, QPel : NoFormat settings, GMC : No warppointsFormat settings, Matrix : Default (MPEG)Codec ID : XVIDCodec ID/Hint : XviDDuration : 2 h 11 minBit rate : 1 192 kb/sWidth : 720 pixelsHeight : 400 pixelsDisplay aspect ratio : 16:9Frame rate : 25.000 FPSColor space : YUVChroma subsampling : 4:2:0Bit depth : 8 bitsScan type : ProgressiveCompression mode : LossyBits/(Pixel*Frame) : 0.166Stream size : 1.09 GiB (75%)Writing library : XviD 1.2.1 (UTC 2008-12-04)
Audio #1ID : 1Format : AC-3Format/Info : Audio Coding 3Format settings, Endianness : BigCodec ID : 2000Duration : 2 h 11 minBit rate mode : ConstantBit rate : 192 kb/sChannel(s) : 2 channelsChannel positions : Front: L RSampling rate : 48.0 kHzFrame rate : 31.250 FPS (1536 SPF)Bit depth : 16 bitsCompression mode : LossyStream size : 180 MiB (12%)Alignment : Split accross interleavesInterleave, duration : 40 ms (1.00 video frame)Interleave, preload duratio : 500 msTitle : RusService kind : Complete Main
Audio #2ID : 2Format : AC-3Format/Info : Audio Coding 3Format settings, Endianness : BigCodec ID : 2000Duration : 2 h 11 minBit rate mode : ConstantBit rate : 192 kb/sChannel(s) : 2 channelsChannel positions : Front: L RSampling rate : 48.0 kHzFrame rate : 31.250 FPS (1536 SPF)Bit depth : 16 bitsCompression mode : LossyStream size : 180 MiB (12%)Alignment : Split accross interleavesInterleave, duration : 40 ms (1.00 video frame)Interleave, preload duratio : 500 msTitle : EngService kind : Complete Main

Скриншот c названием фильма

Скриншоты

Интересные факты

  • В своих комментариях на DVD режиссёр Роберт Олтмен заявил, что он умышленно ввёл в сценарий несколько нецензурных выражений исключительно ради того, чтобы фильм получил рейтинг «R». Он не хотел, чтобы на сеансы допускались дети, поскольку полагал, что фильм не понравится им, и они просто не поймут его.-
  • Обои в комнате Констанс Трентэм были ручной работы, завезённые из Франции. Даже для такой маленькой комнаты их стоимость составляла около 18 тысяч долларов, но производители приняли решение отказаться от оплаты, предоставив их для съёмок фильма совершенно бесплатно.-
  • Первоначальным выбором на роль инспектора Томпсона был Кеннет Брана, но актёр отказался от поступившего ему предложения, сославшись на занятость в других проектах.-
  • Райан Филипп получил роль в 11 часов вечера после неожиданного отказа ранее приглашённого актёра.-
  • Режиссёр Роберт Олтмен консультировался со сценаристом Эзной Сэндсом перед тем как начать работу над проектом, планируя пригласить его на возможную шлифовку сценария. Тот после ознакомления со сценарием заявил, что он настолько близок к идеалу, что в его услугах просто нет необходимости.-
  • Название «Госфорд Парк» ни разу не произносится на протяжении всего фильма.-
  • Ни один из актёров, игравших многочисленную прислугу, не носил никакого грима.-
  • В каждой из сцен фильма присутствует кто-либо из прислуги.-
  • В каждом кадре фильма камера находится в движении. Это было неотъёмлемым требованием режиссёра.-
  • Ювелирные украшения, которые носили аристократические леди в фильме, были настоящими и стоили немалую сумму. Каждый день они доставлялись на съёмочную площадку в сопровождении специальной нанятой службы охраны.-
  • Во время съёмок групповых сцен режиссёр Роберт Олтмен постоянно использовал не одну, а две движущиеся в противоположных направлениях камеры. Это было сделано для того, чтобы актёры вели себя более естественно и не сосредотачивали всё своё внимание на снимающей их камере.-
  • Когда герой Джереми Нортэма играет на пианино, в некоторые моменты играет сам актёр, а в другие — его брат, который обучался игре на пианино с детства.-
  • Большая часть сцена была снята в классическом британском поместье Ротэм Парк, графство Херфордшир, главный дом которого был построен в 1754 году. Отдельные сцены в верхних спальнях снимались в поместье Syon House в Вест-Лондоне, исконно принадлежащем семье герцогов Нортумберлендских.-
  • В фильме звучит ряд песен, написанных в 1910-1930-е годы Айвором Новелло, который является одним из второстепенных персонажей картины. Песни исполнили Джереми Нортэм, сыгравший Новелло в фильме, и его брат Кристофер.-
  • Сценарист Джулиан Феллоуз решил развить успешную идею равнопланового освещения жизни аристократии и прислуги и воплотил её в телесериале «Аббатство Даунтон».


[torrentc.info]_t_5612005.torrent
Торрент: Зарегистрирован ·  [ 2018-09-11 01:48 ] ·  0a0f4996ef328e399cdb3d4064d68e92400d29e5

15 KB

Статус: проверено
Скачан: 0 раз
Размер: 1.46 GB
Оценка: 
(Голосов: 0)
Сказали спасибо: 0  Спасибо
Похожие темы
[Профиль]    [ЛС]
Показать сообщения:    
Ответить на тему

Текущее время: Сегодня 10:24

Часовой пояс: GMT + 7



Вы не можете начинать темы
Вы не можете отвечать на сообщения
Вы не можете редактировать свои сообщения
Вы не можете удалять свои сообщения
Вы не можете голосовать в опросах
Вы не можете прикреплять файлы к сообщениям
Вы можете скачивать файлы