Завтра к полуночи / Tomorrow by Midnight (Рольф Канефски / Rolfe Kanefsky) [2001, США, Триллер, драма, комедия, DVDRip-AVC] DVO (Екатеринбург Арт) + Original Eng

Ответить на тему
Статистика раздачи [Обновить пиров]
Размер:  1.43 GB   |    Зарегистрирован:  2 месяца 6 дней   |    Скачан:  0 раз

Полного источника не было: Никогда

 
   
 
 
 
Автор Сообщение

torrentc.info

Создавать темы 09-Сен-2018 13:53

[Цитировать]

Завтра к полуночи / Tomorrow by Midnight
Страна: США
Жанр: Триллер, драма, комедия
Год выхода: 2001
Продолжительность: 01:28:53
Перевод: Профессиональный (двухголосый закадровый) Екатеринбург Арт
Субтитры: нет
Оригинальная аудиодорожка: английский
Режиссер: Рольф Канефски / Rolfe Kanefsky
В ролях: Алексис Аркетт
Тамара Мари Уотсон
Дженнифер Ламберт
Карим Принц
Скотт Ринкер
Уильям Вогт
Кэрол Кейн
Марк Коллвер
Роберт Донован
Мэтт Шампейн
Описание: Почти ровно в полночь Том, Козмо, Ли и Кайра входят в видеопрокат. Они собираются вернуть кассеты и взять парочку новых. Но зловредный кассир Сидней устраивает скандал на том основании, что кассеты возвращены на 55 минут позже срока.
Больше Сидней не выдаст им ничего. Пусть его убьют, пусть он — придурок, но главный здесь он. Сидней требует, чтобы ребята убирались из проката, или ему придется звонить в полицию! И тогда Ли достает из штанов… пистолет и берет Сиднея в заложники.
Раз они не могут взять кассеты, то всю ночь будут смотреть фильмы здесь, в прокате. Но где кончается кино и начинается настоящая жизнь? И что произойдет, когда полиция и спецназ попытаются освободить заложника? Да, брать видеокассеты напрокат — совсем не такое простое дело…
Доп. информация: За звуковую дорожку спасибо Fikaloid , а также мне за синхрон дорожки
Видеоряд найден в сети
Сэмпл: https://yadi.sk/i/n9BCR8p9CziAkw
Качество видео: DVDRip-AVC
Формат файла: MKV
Видео: 750x576, 25.000 fps ,AVC, 1 893 Kbps
Аудио: AC3 , 48 kHz , 224.00 kbps avg , 2/0 (L,R) ch (Rus)
Аудио 2: AC3 , 48 kHz , 192.00 kbps avg , 2/0 (L,R) ch (Eng)

MediaInfo

Complete name Завтра к полуночи - Tomorrow by Midnight 2001.mkvFormat : MatroskaFormat version : Version 2File size : 1.43 GiBDuration : 1h 28mnOverall bit rate : 2 311 KbpsEncoded date : UTC 2018-09-09 05:48:33Writing application : mkvmerge v3.3.0 ('Language') built on Mar 24 2010 14:59:24Writing library : libebml v0.8.0 + libmatroska v0.9.0
VideoID : 1Format : AVCFormat/Info : Advanced Video CodecFormat profile : High@L3.1Format settings, CABAC : YesFormat settings, ReFrames : 4 framesCodec ID : V_MPEG4/ISO/AVCDuration : 1h 28mnBit rate : 1 893 KbpsWidth : 750 pixelsHeight : 576 pixelsDisplay aspect ratio : 4:3Frame rate mode : ConstantFrame rate : 25.000 fpsColor space : YUVChroma subsampling : 4:2:0Bit depth : 8 bitsScan type : ProgressiveBits/(Pixel*Frame) : 0.175Stream size : 1.15 GiB (80%)Writing library : x264 core 120Encoding settings : cabac=1 / ref=3 / deblock=1:0:0 / analyse=0x3:0x113 / me=hex / subme=7 / psy=1 / psy_rd=1.00:0.00 / mixed_ref=1 / me_range=16 / chroma_me=1 / trellis=1 / 8x8dct=1 / cqm=0 / deadzone=21,11 / fast_pskip=1 / chroma_qp_offset=-2 / threads=3 / sliced_threads=0 / nr=0 / decimate=1 / interlaced=0 / bluray_compat=0 / constrained_intra=0 / bframes=3 / b_pyramid=2 / b_adapt=2 / b_bias=0 / direct=1 / weightb=1 / open_gop=0 / weightp=2 / keyint=250 / keyint_min=25 / scenecut=40 / intra_refresh=0 / rc_lookahead=50 / rc=2pass / mbtree=1 / bitrate=1893 / ratetol=1.0 / qcomp=0.60 / qpmin=3 / qpmax=69 / qpstep=4 / cplxblur=20.0 / qblur=0.5 / ip_ratio=1.40 / aq=1:1.00Language : EnglishDefault : YesForced : NoColor range : LimitedColor primaries : BT.601 NTSCTransfer characteristics : BT.709Matrix coefficients : BT.601
Audio #1ID : 2Format : AC-3Format/Info : Audio Coding 3Mode extension : CM (complete main)Format settings, Endianness : BigCodec ID : A_AC3Duration : 1h 28mnBit rate mode : ConstantBit rate : 224 KbpsChannel(s) : 2 channelsChannel positions : Front: L RSampling rate : 48.0 KHzFrame rate : 31.250 fps (1536 spf)Compression mode : LossyStream size : 142 MiB (10%)Default : YesForced : No
Audio #2ID : 3Format : AC-3Format/Info : Audio Coding 3Mode extension : CM (complete main)Format settings, Endianness : BigCodec ID : A_AC3Duration : 1h 28mnBit rate mode : ConstantBit rate : 192 KbpsChannel(s) : 2 channelsChannel positions : Front: L RSampling rate : 48.0 KHzFrame rate : 31.250 fps (1536 spf)Compression mode : LossyStream size : 122 MiB (8%)Default : NoForced : No

Скриншоты



[torrentc.info]_t_5611320.torrent
Торрент: Зарегистрирован ·  [ 2018-09-09 13:53 ] ·  6426ec30187c8dfde4b86ebb5037a51859fba3e3

15 KB

Статус: проверено
Скачан: 0 раз
Размер: 1.43 GB
Оценка: 
(Голосов: 0)
Сказали спасибо: 0  Спасибо
Похожие темы
[Профиль]    [ЛС]
Показать сообщения:    
Ответить на тему

Текущее время: Сегодня 12:30

Часовой пояс: GMT + 7



Вы не можете начинать темы
Вы не можете отвечать на сообщения
Вы не можете редактировать свои сообщения
Вы не можете удалять свои сообщения
Вы не можете голосовать в опросах
Вы не можете прикреплять файлы к сообщениям
Вы можете скачивать файлы