Обнаженная убийца / Naked Killer / Chik loh go yeung (Кларенс Форд / Clarence Ford) [1992, Гонконг, боевик, криминал, DVDRip] VO (Неизвестный)

Ответить на тему
Статистика раздачи [Обновить пиров]
Размер:  1.47 GB   |    Зарегистрирован:  1 месяц 11 дней   |    Скачан:  1 раз

Полного источника не было: 12 дней

 
   
 
 
 
Автор Сообщение

torrentc.info

Создавать темы 08-Сен-2018 15:48

[Цитировать]

Обнаженная убийца / Naked Killer / Chik loh go yeung
Страна: Гонконг
Жанр: боевик, криминал
Год выхода: 1992
Продолжительность: 01:33:00
Перевод: Одноголосый закадровый Неизвестный
Субтитры: нет
Режиссер: Кларенс Форд / Clarence Ford
В ролях: Чингми Яу, Саймон Ям, Кэрри Нг, Келли Ю, Кен Ло, Сугавара Мадока, Ю Вай, Ван Юй-Хун, Дик Лау
Описание: Очаровательная обормотка Китти очень вспыльчива и весьма обижена на мужчин, которые всю ее недолгую жизнь доставляли ей исключительно неприятности. Однако, познакомившись с полицейским по имени Тинам, она почти поддается искушению переменить мнение о поголовной отвратительности мужчин, но все в одночасье меняется, когда богатый бизнесмен убивает ее отца. Китти в ярости врывается в его офис, застрелив не один десяток человек, и выживает исключительно благодаря тому, что ее уволакивает с поля боя некая Синди, оказавшаяся наемной убийцей. Синди дает Китти новые отпечатки пальцев и новую личность, намереваясь сделать ее своей преемницей, но весь план ставит под угрозу Тинам, отчаянно разыскивающий свою пропавшую любовь. С другой стороны, Китти угрожает вторая ученица Синди, Принцесса - жестокая безжалостная убийца-лесбиянка, уже положившая глаз на свою новую "сестричку" по ремеслу....
Сэмпл: http://multi-up.com/1208378
Качество видео: DVDRip (Источник: Torrentc DVD9 / KinpZal)
Формат файла: AVI
Видео: XviD 73, 704x400, (16:9), 25,000 fps, 2062 Кбит/с, 8 бит
Аудио: Русский (АС3, 2 ch (Front: L R), 48,0 KHz, 192 Kbps)

MediaInfo

ОбщееПолное имя : D:\Видеофильмы\В и д е о\Обнаженная убийца (боевик, криминал 1992 год).aviФормат файла : AVIФормат файла/Информация : Audio Video InterleaveРазмер файла : 1,47 ГбайтПродолжительность : 1 ч. 33 м.Общий поток : 2263 Кбит/секПрограмма кодирования : VirtualDubMod 1.5.10.3 | www.virtualdub-fr.org || (build 2550/release)Библиотека кодирования : VirtualDubMod build 2550/release
ВидеоИдентификатор : 0Формат файла : MPEG-4 VisualПрофиль формата : Advanced Simple@L5Параметр BVOP формата : 2Параметр QPel формата : НетПараметр GMC формата : Без точки переходаПараметр матрицы формата : ВыборочнаяИдентификатор кодека : XVIDИдентификатор кодека/Подсказка : XviDПродолжительность : 1 ч. 33 м.Битрейт : 2062 Кбит/секШирина : 704 пикселяВысота : 400 пикселейСоотношение сторон : 16:9Частота кадров : 25,000 кадров/секЦветовое пространство : YUVСубдискретизация насыщенности : 4:2:0Битовая глубина : 8 битТип развёртки : ПрогрессивнаяМетод сжатия : С потерямиБит/(Пиксели*Кадры) : 0.293Размер потока : 1,34 Гбайт (91%)Библиотека кодирования : XviD 73
АудиоИдентификатор : 1Формат файла : AC-3Формат файла/Информация : Audio Coding 3Расширение режима : CM (complete main)Параметр Endianness формата : BigИдентификатор кодека : 2000Продолжительность : 1 ч. 33 м.Вид битрейта : ПостоянныйБитрейт : 192 Кбит/секКаналы : 2 каналаРасположение каналов : Front: L RЧастота : 48,0 КГцЧастота кадров : 31,250 кадров/сек (1536 spf)Метод сжатия : С потерямиРазмер потока : 128 Мбайт (8%)Выравнивание : Разделение по промежуткамПродолжительность промежутка : 40 мс. (1,00 видеокадр)Время предзагрузки промежутка : 500 мс.

Скриншоты



[torrentc.info]_t_5610935.torrent
Торрент: Зарегистрирован ·  [ 2018-09-08 15:48 ] ·  12a0de8c5c5c0daf7695e22bb842c8908f7a5366

15 KB

Статус: проверено
Скачан: 1 раз
Размер: 1.47 GB
Оценка: 
(Голосов: 0)
Сказали спасибо: 0  Спасибо
Похожие темы
[Профиль]    [ЛС]
Показать сообщения:    
Ответить на тему

Текущее время: Сегодня 14:04

Часовой пояс: GMT + 7



Вы не можете начинать темы
Вы не можете отвечать на сообщения
Вы не можете редактировать свои сообщения
Вы не можете удалять свои сообщения
Вы не можете голосовать в опросах
Вы не можете прикреплять файлы к сообщениям
Вы можете скачивать файлы