Похищение Парсонса / Grand Theft Parsons (Дэвид Кэффри / David Caffrey) [2003, США, трагикомедия, DVDRip-AVC] DVO + AVO (Дольский) + Original Eng

Ответить на тему
Статистика раздачи [Обновить пиров]
Размер:  2.13 GB   |    Зарегистрирован:  1 месяц 23 дня   |    Скачан:  1 раз

Полного источника не было: 3 дня

 
   
 
 
 
Автор Сообщение

torrentc.info

Создавать темы 31-Авг-2018 16:18

[Цитировать]

Похищение Парсонса / Grand Theft Parsons
Страна: США
Жанр: трагикомедия
Год выхода: 2003
Продолжительность: 01:24:41
Перевод: Профессиональный (двухголосый закадровый)
Перевод 2: Авторский (одноголосый закадровый) Дольский
Субтитры: нет
Оригинальная аудиодорожка: английский
Режиссер: Дэвид Кэффри / David Caffrey
В ролях: Джонни Ноксвилл, Кристина Апплгейт, Марли Шелтон, Майкл Шеннон, Роберт Форстер
Описание: Грэм Парсонс (Gram Parsons, наст. имя Cecil Ingram Connor III; 5.11.1946 — 19.09.1973) — американский певец, гитарист и пианист. Один из основоположников кантри-рока. В 60-е годы он был участником известной группы "The Byrds", а затем основал "The Flying Burrito Brothers". В начале 70-х годов певец запустил сольную карьеру, записав два альбома — "GP" и "Grievous Angel". Парсонс скоропостижно умер в возрасте 26 лет от передозировки наркотиков и хотя он не записал хитов и не добился коммерческого успеха, после смерти он обрёл почти мифический статус, а наследие певца не было забыто.
Широчайшую посмертную известность Парсонсу также принес инцидент с его трупом — перед похоронами он был похищен другом и менеджером певца Филом Кауфманом и сожжён в калифорнийской пустыне на территории национального парка "Joshua Tree". Позднее выяснилось, что Кауфман выполнял прижизненную волю Парсонса. По мотивам данного происшествия и был снят этот фильм.
В фильме звучит много песен в исполнении Грэма Парсонса. В саундтреке также Bruce Springsteen, "Primal Scream", Rory Gallagher, Eddie Floyd и другие.
Сэмпл: https://yadi.sk/i/hxhQnjnn3aZhF2
Качество видео: DVDRip-AVC
Формат файла: MKV
Видео: AVC; 700x574@765x574 (4:3); ~3000 Kbps; 25 fps
Аудио: AC3, 2.0 ch., 48 kHz, 192 kbps - DVO
Аудио 2: AC3, 2.0 ch., 48 kHz, 192 kbps - Андрей Дольский
Аудио 3: AC3, 2.0 ch., 48 kHz, 192 kbps - english

MediaInfo

ОбщееУникальный идентификатор : 140073580431629137418125116230812493184 (0x696130B74F3AC7D1B42334822F1EE580)Полное имя : D:\Torrents\Grand Theft Parsons [DVDRip-AVC 2003].mkvФормат файла : MatroskaВерсия формата : Version 4 / Version 2Размер файла : 2,13 ГбайтПродолжительность : 1 ч. 24 м.Общий поток : 3596 Кбит/секДата кодирования : UTC 2018-08-26 06:26:59Программа кодирования : mkvmerge v19.0.0 ('Brave Captain') 32-bitБиблиотека кодирования : libebml v1.3.5 + libmatroska v1.4.8
ВидеоИдентификатор : 1Формат файла : AVCФормат файла/Информация : Advanced Video CodecПрофиль формата : High@L4.1Настройки формата : CABAC / 8 Ref FramesПараметр CABAC формата : ДаПараметр RefFrames формата : 8 кадровИдентификатор кодека : V_MPEG4/ISO/AVCПродолжительность : 1 ч. 24 м.Битрейт : 3018 Кбит/секШирина : 700 пикселейВысота : 574 пикселяСоотношение сторон : 4:3Режим частоты кадров : ПостоянныйЧастота кадров : 25,000 кадров/секЦветовое пространство : YUVСубдискретизация насыщенности : 4:2:0Битовая глубина : 8 битТип развёртки : ПрогрессивнаяБит/(Пиксели*Кадры) : 0.300Размер потока : 1,78 Гбайт (84%)Библиотека кодирования : x264 core 155 r2901M 7d0ff22Настройки программы : cabac=1 / ref=8 / deblock=1:-3:-3 / analyse=0x3:0x133 / me=umh / subme=9 / psy=1 / psy_rd=1.00:0.00 / mixed_ref=1 / me_range=24 / chroma_me=1 / trellis=2 / 8x8dct=1 / cqm=0 / deadzone=21,11 / fast_pskip=1 / chroma_qp_offset=-2 / threads=3 / lookahead_threads=1 / sliced_threads=0 / nr=0 / decimate=1 / interlaced=0 / bluray_compat=0 / constrained_intra=0 / bframes=9 / b_pyramid=2 / b_adapt=2 / b_bias=0 / direct=3 / weightb=1 / open_gop=0 / weightp=2 / keyint=250 / keyint_min=25 / scenecut=40 / intra_refresh=0 / rc=crf / mbtree=0 / crf=18.0 / qcomp=0.60 / qpmin=0 / qpmax=69 / qpstep=4 / ip_ratio=1.40 / pb_ratio=1.30 / aq=1:1.00Default : ДаForced : НетЦветовой диапазон : Limited
Аудио #1Идентификатор : 2Формат файла : AC-3Формат файла/Информация : Audio Coding 3Идентификатор кодека : A_AC3Продолжительность : 1 ч. 24 м.Вид битрейта : ПостоянныйБитрейт : 192 Кбит/секКаналы : 2 каналаРасположение каналов : Front: L RЧастота : 48,0 КГцЧастота кадров : 31,250 кадров/сек (1536 SPF)Битовая глубина : 16 битМетод сжатия : С потерямиРазмер потока : 116 Мбайт (5%)Заголовок : DVOЯзык : RussianServiceKind/String : Complete MainDefault : ДаForced : Нет
Аудио #2Идентификатор : 3Формат файла : AC-3Формат файла/Информация : Audio Coding 3Идентификатор кодека : A_AC3Продолжительность : 1 ч. 24 м.Вид битрейта : ПостоянныйБитрейт : 192 Кбит/секКаналы : 2 каналаРасположение каналов : Front: L RЧастота : 48,0 КГцЧастота кадров : 31,250 кадров/сек (1536 SPF)Битовая глубина : 16 битМетод сжатия : С потерямиРазмер потока : 116 Мбайт (5%)Заголовок : DolskiyЯзык : RussianServiceKind/String : Complete MainDefault : НетForced : Нет
Аудио #3Идентификатор : 4Формат файла : AC-3Формат файла/Информация : Audio Coding 3Идентификатор кодека : A_AC3Продолжительность : 1 ч. 24 м.Вид битрейта : ПостоянныйБитрейт : 192 Кбит/секКаналы : 2 каналаРасположение каналов : Front: L RЧастота : 48,0 КГцЧастота кадров : 31,250 кадров/сек (1536 SPF)Битовая глубина : 16 битМетод сжатия : С потерямиРазмер потока : 116 Мбайт (5%)Язык : EnglishServiceKind/String : Complete MainDefault : НетForced : Нет

Скриншот c названием фильма

Скриншоты



[torrentc.info]_t_5605463.torrent
Торрент: Зарегистрирован ·  [ 2018-08-31 16:18 ] ·  b403239a161582e1d5f195a8529eb1324af92d48

11 KB

Статус: проверено
Скачан: 1 раз
Размер: 2.13 GB
Оценка: 
(Голосов: 0)
Сказали спасибо: 0  Спасибо
Похожие темы
[Профиль]    [ЛС]
Показать сообщения:    
Ответить на тему

Текущее время: Сегодня 12:51

Часовой пояс: GMT + 7



Вы не можете начинать темы
Вы не можете отвечать на сообщения
Вы не можете редактировать свои сообщения
Вы не можете удалять свои сообщения
Вы не можете голосовать в опросах
Вы не можете прикреплять файлы к сообщениям
Вы можете скачивать файлы