Еженочные грёзы / Every-Night dreams / Yogoto no yume (Микио Нарусе / Mikio Naruse) [1933, Япония, драма, немое кино, DVDRip-AVC] Sub Rus

Ответить на тему
Статистика раздачи [Обновить пиров]
Размер:  836 MB   |    Зарегистрирован:  1 месяц 23 дня   |    Скачан:  0 раз

Полного источника не было: Никогда

 
   
 
 
 
Автор Сообщение

torrentc.info

Создавать темы 31-Авг-2018 15:16

[Цитировать]

Еженочные грёзы / Every-Night dreams / Yogoto no yume
Страна: Япония
Жанр: Драма, Немое кино
Год выхода: 1933
Продолжительность: 01:04:23
Перевод: Субтитры
Субтитры: русские
Оригинальная аудиодорожка: Немое кино
Режиссер: Микио Нарусе / Mikio Naruse
В ролях: Сумико Куришима, Тацуо Сайто, Теруко Коджима, Митцуо Ёшикава
Описание:
Очень сложно повернуть реку вспять и не менее сложно изменить ход неудачно складываемой жизни!
С подобной проблемой столкнулась и Омицу- главная героиня фильма. Картина повествует о её драматической судьбе, на которую обрушивается целый ряд невзгод и потрясений
Самый драматический немой фильм М.Нарусэ ,очень тонкая картина, в которой уже прослеживается характерные для последующего творчества режиссера стилевые приёмы: нешаблонные психологические портреты персонажей, максимальная свобода действия для актеров с целью изображения всех психологических нюансов, незабываемые окончания фильмов…
Доп. информация: В канун дня рождения Микио Нарусэ 20 августа 1905 года ссылка на книгу американского режиссера Дэна Салитта о творчестве великого японского мастера https://mikionaruse.wordpress.com/
Сэмпл: https://www.sendspace.com/file/3azvo7

Качество видео: DVDRip
Формат файла: MKV
Видео: 720x552, 4:3, 23,976, 0.146 bit/pixel ~1396 kbps
Аудио: Advanced Audio Codec , 48 kHz, 2/0 (L,R) ch, ~384 kbps
Формат файла субтитров: softsub (SRT)
Доп. информация о субтитрах: перевод с английских

MediaInfo

ОбщееУникальный идентификатор : 193752454296377460377765751849931328037 (0x91C35D87C2B201A0B4EE23997C054A25)Полное имя : C:\Users\Comp\Downloads\Every-Night Dreams (Yogoto no yume) - 1933 - Mikio Naruse\Every-Night Dreams (Yogoto no yume) - 1933 - Mikio Naruse.mkvФормат файла : MatroskaВерсия формата : Version 2Размер файла : 836 МбайтПродолжительность : 1 ч. 4 м.Режим общего битрейта : ПеременныйОбщий поток : 1816 Кбит/секНазвание фильма : Every-Night Dreams (Yogoto no yume) - 1933 - Mikio Naruse - Eclipse 26Дата кодирования : UTC 2018-08-19 08:45:52Программа кодирования : mkvmerge v6.9.1 ('Blue Panther') 32bit built on Apr 18 2014 18:15:44Библиотека кодирования : libebml v1.3.0 + libmatroska v1.4.1
ВидеоИдентификатор : 1Формат файла : AVCФормат файла/Информация : Advanced Video CodecПрофиль формата : Main@L3Настройки формата : CABAC / 2 Ref FramesПараметр CABAC формата : ДаПараметр RefFrames формата : 2 кадраПараметр GOP формата : M=3, N=15Идентификатор кодека : V_MPEG4/ISO/AVCПродолжительность : 1 ч. 4 м.Вид битрейта : ПеременныйБитрейт : 1396 Кбит/секМаксимальный битрейт : 2145 Кбит/секШирина : 720 пикселейВысота : 552 пикселяСоотношение сторон : 4:3Режим частоты кадров : ПостоянныйЧастота кадров : 23,976 (24000/1001) кадра/секЦветовое пространство : YUVСубдискретизация насыщенности : 4:2:0Битовая глубина : 8 битТип развёртки : ПрогрессивнаяБит/(Пиксели*Кадры) : 0.146Размер потока : 643 Мбайт (77%)Default : НетForced : Нет
АудиоИдентификатор : 2Формат файла : AC-3Формат файла/Информация : Audio Coding 3Идентификатор кодека : A_AC3Продолжительность : 1 ч. 4 м.Вид битрейта : ПостоянныйБитрейт : 384 Кбит/секКаналы : 2 каналаРасположение каналов : Front: L RЧастота : 48,0 КГцЧастота кадров : 31,250 кадров/сек (1536 SPF)Битовая глубина : 16 битМетод сжатия : С потерямиРазмер потока : 177 Мбайт (21%)ServiceKind/String : Complete MainDefault : НетForced : Нет
ТекстИдентификатор : 3Формат файла : UTF-8Идентификатор кодека : S_TEXT/UTF8Идентификатор кодека/Информация : UTF-8 Plain TextDefault : ДаForced : Нет

Описание субтитров

15
00:01:37,197 --> 00:01:40,144
Омицу возвращается из своей поездки
16
00:01:56,182 --> 00:01:57,422
Угостите меня сигаретой
17
00:02:34,921 --> 00:02:36,491
Ты такой милый!
18
00:02:42,562 --> 00:02:46,169
Бар без тебя просто зачах
19
00:02:54,641 --> 00:02:58,179
Эх молодые годы!
Пойдем покатаемся на лодке?
20
00:03:07,453 --> 00:03:11,566
Если тебе нужно со мной пообщаться поближе,
приходи сегодня вечером в бар
21
00:04:21,861 --> 00:04:22,464
Мама!
22
00:04:37,243 --> 00:04:40,087
Прости, я очень задержалась
23
00:04:46,052 --> 00:04:49,898
Ничего страшного
Он для нас как внук
24
00:04:52,792 --> 00:04:53,600
Ты привезла подарки?
25
00:04:57,864 --> 00:04:59,741
Я себя очень хорошо вел!
26
00:05:21,954 --> 00:05:25,959
Прости, меня малыш.
Я тебе вечером что-то принесу
27
00:05:32,065 --> 00:05:34,875
Мама, пошли скорей в нашу комнату
28
00:05:40,273 --> 00:05:43,117
Ты так долго не видел маму,
позволь ей позаботиться о тебе
29
00:07:37,890 --> 00:07:43,703
К тебе два раза приходил незнакомец,
он хотел с тобой повидаться
30
00:07:47,400 --> 00:07:51,542
Он не назвался, но показалось
что он немного не в себе
31
00:08:13,359 --> 00:08:15,965
Почему ты не ищешь другую работу?
32
00:08:23,102 --> 00:08:27,881
Любая работа может не нравится,
но ради своего сына нужно поискать
33
00:08:38,951 --> 00:08:41,295
Уже поздно что-то менять...


[torrentc.info]_t_5602401.torrent
Торрент: Зарегистрирован ·  [ 2018-08-31 15:16 ] ·  466261270b28fec737948182e07d54a2cfbb89f2

17 KB

Статус: проверено
Скачан: 0 раз
Размер: 836 MB
Оценка: 
(Голосов: 0)
Сказали спасибо: 0  Спасибо
Похожие темы
[Профиль]    [ЛС]
Показать сообщения:    
Ответить на тему

Текущее время: Сегодня 12:03

Часовой пояс: GMT + 7



Вы не можете начинать темы
Вы не можете отвечать на сообщения
Вы не можете редактировать свои сообщения
Вы не можете удалять свои сообщения
Вы не можете голосовать в опросах
Вы не можете прикреплять файлы к сообщениям
Вы можете скачивать файлы