Бешеный зверь / Crazed Beast / Kurutta yaju (Садао Накадзима / Sadao Nakajima) [1976, Япония, боевик, триллер, драма, криминал, DVDRip] VO (Виктор Береговых)

Ответить на тему
Статистика раздачи [Обновить пиров]
Размер:  1.37 GB   |    Зарегистрирован:  3 месяца 19 дней   |    Скачан:  0 раз

Полного источника не было: Никогда

 
   
 
 
 
Автор Сообщение

torrentc.info

Создавать темы 27-Авг-2018 11:51

[Цитировать]

Бешеный зверь / Crazed Beast / Kurutta yaju
Страна: Япония
Жанр: боевик, триллер, драма, криминал
Год выхода: 1976
Продолжительность: 01:18:07
Перевод: Одноголосый закадровый (Виктор Береговых)
Субтитры: нет
Режиссер: Садао Накадзима / Sadao Nakajima
В ролях: Цунэхико Ватасэ, Джан Хосино, Такудзо Каватани, Рюдзи Катагири, Масако Араки, Масатака Ивао, Кан Миками, Хидэо Мурота, Михоко Накагава
Описание: Двое грабителей, после неудачной попытки ограбления банка, захватывают автобус с заложниками. Нервы преступников на пределе и они могут сорваться в любой момент. Среди пассажиров есть еще один преступник, он только что ограбил ювелирный на сумму 85 миллионов йен и теперь ему нужно любой ценой выбраться из сложившейся ситуации...
Сэмпл: http://multi-up.com/1207193
Качество видео: DVDRip
Формат файла: AVI
Видео: 704x304 (2.35:1), 23.976 fps, 2307 kbps avg, 0.450 bit/pixel
Аудио: AC3, 48.0 KHz, 192 Kbps, 2 channels

MediaInfo

Format : AVIFormat/Info : Audio Video InterleaveFile size : 1.37 GiBDuration : 1h 18mnOverall bit rate : 2 506 KbpsWriting application : VirtualDubMod 1.5.4.1 (build 2178/release)Writing library : VirtualDubMod build 2178/release
VideoID : 0Format : MPEG-4 VisualFormat profile : AdvancedSimple@L5Format settings, BVOP : NoFormat settings, QPel : NoFormat settings, GMC : No warppointsFormat settings, Matrix : CustomCodec ID : XVIDCodec ID/Hint : XviDDuration : 1h 18mnBit rate : 2 307 KbpsWidth : 704 pixelsHeight : 304 pixelsDisplay aspect ratio : 2.35:1Frame rate : 23.976 fpsResolution : 24 bitsColorimetry : 4:2:0Scan type : ProgressiveBits/(Pixel*Frame) : 0.450Stream size : 1.26 GiB (92%)Writing library : XviD 1.2.0.dev47 (UTC 2006-11-01)
AudioID : 1Format : AC-3Format/Info : Audio Coding 3Codec ID : 2000Duration : 1h 18mnBit rate mode : ConstantBit rate : 192 KbpsChannel(s) : 2 channelsChannel positions : L RSampling rate : 48.0 KHzStream size : 107 MiB (8%)Alignment : Split accross interleavesInterleave, duration : 96 ms (2.30 video frames)Interleave, preload duration : 96 msLanguage : Russian

Скриншот c названием фильма

Скриншоты



[torrentc.info]_t_5605617.torrent
Торрент: Зарегистрирован ·  [ 2018-08-27 11:51 ] ·  1a347ee05d041c778cb9b7a25cf78c7068c62ead

14 KB

Статус: проверено
Скачан: 0 раз
Размер: 1.37 GB
Оценка: 
(Голосов: 0)
Сказали спасибо: 0  Спасибо
Похожие темы
[Профиль]    [ЛС]
Показать сообщения:    
Ответить на тему

Текущее время: Сегодня 23:35

Часовой пояс: GMT + 7



Вы не можете начинать темы
Вы не можете отвечать на сообщения
Вы не можете редактировать свои сообщения
Вы не можете удалять свои сообщения
Вы не можете голосовать в опросах
Вы не можете прикреплять файлы к сообщениям
Вы можете скачивать файлы