Рыцари Токио / Tokyo Knights / Tokyo naito (Сэйдзюн Судзуки / Seijun Suzuki) [1961, Япония, боевик, криминал, BDRip] AVO (Андрей Дольский)

Ответить на тему
Статистика раздачи [Обновить пиров]
Размер:  1.37 GB   |    Зарегистрирован:  2 месяца 20 дней   |    Скачан:  0 раз

Полного источника не было: Никогда

 
   
 
 
 
Автор Сообщение

torrentc.info

Создавать темы 26-Авг-2018 16:43

[Цитировать]

Рыцари Токио / Tokyo Knights / Tokyo naito
Страна: Япония
Жанр: боевик, криминал
Год выхода: 1961
Продолжительность: 01:21:06
Перевод: Авторский (одноголосый закадровый) Андрей Дольский
Субтитры: нет
Режиссер: Сэйдзюн Судзуки / Seijun Suzuki
В ролях: Кодзи Вада, Маюми Симидзу, Ёко Минамида, Нобуо Канэко, Риоко Фиутсу, Сёити Одзава, Хироси Кондо, Миаги Сато, Фудзико Дзен
Описание: После внезапной смерти отца - гангстера, его сын студент колледжа, наследует бизнес отца в области организованной преступности....
Сэмпл: https://yadi.sk/i/0qx3odPX3aZSM5
Качество видео: BDRip (Источник: Torrentc BDRemux 1080p)
Формат файла: AVI
Видео: XviD 73, 720x304, (2,35:1), 23,976 fps, 2187 Кбит/с, 8 бит
Аудио: Русский (АС3, 1 ch (Front: С), 48,0 KHz, 224 Kbps

MediaInfo

ОбщееПолное имя : D:\Видеофильмы\В и д е о\Рыцари Токио (боевик, криминал 1961 год).aviФормат файла : AVIФормат файла/Информация : Audio Video InterleaveРазмер файла : 1,37 ГбайтПродолжительность : 1 ч. 21 м.Общий поток : 2421 Кбит/секПрограмма кодирования : VirtualDubMod 1.5.10.2 (build 2540/release)Библиотека кодирования : VirtualDubMod build 2540/release
ВидеоИдентификатор : 0Формат файла : MPEG-4 VisualПрофиль формата : Advanced Simple@L5Параметр BVOP формата : 2Параметр QPel формата : НетПараметр GMC формата : Без точки переходаПараметр матрицы формата : ВыборочнаяИдентификатор кодека : XVIDИдентификатор кодека/Подсказка : XviDПродолжительность : 1 ч. 21 м.Битрейт : 2187 Кбит/секШирина : 720 пикселейВысота : 304 пикселяСоотношение сторон : 2,35:1Частота кадров : 23,976 (23976/1000) кадра/секЦветовое пространство : YUVСубдискретизация насыщенности : 4:2:0Битовая глубина : 8 битТип развёртки : ПрогрессивнаяМетод сжатия : С потерямиБит/(Пиксели*Кадры) : 0.417Размер потока : 1,24 Гбайт (90%)Библиотека кодирования : XviD 73
АудиоИдентификатор : 1Формат файла : AC-3Формат файла/Информация : Audio Coding 3Расширение режима : CM (complete main)Параметр Endianness формата : BigИдентификатор кодека : 2000Продолжительность : 1 ч. 21 м.Вид битрейта : ПостоянныйБитрейт : 224 Кбит/секКаналы : 1 каналРасположение каналов : Front: CЧастота : 48,0 КГцЧастота кадров : 31,250 кадров/сек (1536 spf)Метод сжатия : С потерямиРазмер потока : 130 Мбайт (9%)Выравнивание : Разделение по промежуткамПродолжительность промежутка : 42 мс. (1,00 видеокадр)Время предзагрузки промежутка : 500 мс.

Скриншот c названием фильма

Скриншоты

Источник: Torrentchttp://Torrentc/forum/viewtopic.php?t=5605289
-
Сообщения из этой темы [4 шт.] были выделены в отдельную тему Выделено из: Рыцари Токио / Tokyo Knights / Tokyo naito (Сэйдзюн Судзуки / Seijun Suzuki) [1961, Япония, боевик, криминал, BDRip] AVO (Андрей Дольский) [5605310]
[url=profile.php?mode=viewprofile&u=8679101]порошков[/url]


[torrentc.info]_t_5605310.torrent
Торрент: Зарегистрирован ·  [ 2018-08-26 16:43 ] ·  66119ac82ebad68935bace724982e71b095a66bd

14 KB

Статус: проверено
Скачан: 0 раз
Размер: 1.37 GB
Оценка: 
(Голосов: 0)
Сказали спасибо: 0  Спасибо
Похожие темы
[Профиль]    [ЛС]
Показать сообщения:    
Ответить на тему

Текущее время: Сегодня 12:49

Часовой пояс: GMT + 7



Вы не можете начинать темы
Вы не можете отвечать на сообщения
Вы не можете редактировать свои сообщения
Вы не можете удалять свои сообщения
Вы не можете голосовать в опросах
Вы не можете прикреплять файлы к сообщениям
Вы можете скачивать файлы