(Vocal Jazz, Pop) [CD] Simone Kopmajer - Taking A Chance On Love - 2007 (2010 reissue), FLAC (image+.cue), lossless

Ответить на тему
Статистика раздачи [Обновить пиров]
Размер:  266 MB   |    Зарегистрирован:  6 месяцев 27 дней   |    Скачан:  0 раз

Полного источника не было: Никогда

 
   
 
 
 
Автор Сообщение

Кейт

Создавать темы 25-Авг-2018 22:34

[Цитировать]

Simone Kopmajer / Taking A Chance On Love
[img=right]https://i103.fastpic.ru/big/2018/0823/82/0b5a118c68...6f3682.jpg[/img]
Жанр: Vocal Jazz, Pop
Носитель: CD
Страна-производитель диска (релиза): Japan
Год издания: 2007 (2010 reissue)
Издатель (лейбл): Venus Records
Номер по каталогу: VHCD-78042
Аудиокодек: FLAC (*.flac)
Тип рипа: image+.cue
Битрейт аудио: lossless
Продолжительность: 00:45:58
Источник (релизер): локальная сеть
Наличие сканов в содержимом раздачи: да
Треклист:
1 The Very Thought Of You 5:26
2 Don't Let Me Be Lonely Tonight 5:02
3 Fotografia 5:34
4 Out Love Is Here To Stay 4:42
5 Little Boy 2:57
6 Close To You 5:02
7 Taking A Chance On Love 2:59
8 I Wish You Love (extra Track)
9 No More Blues 4:11
10 Blame It On My Youth 5:30

Лог создания рипа

Exact Audio Copy V1.0 beta 3 from 29. August 2011
EAC extraction logfile from 3. November 2016, 19:18
Simone Kopmajer / Taking A Chance On Love
Used drive : TSSTcorpCDDVDW SH-224FB Adapter: 1 ID: 0
Read mode : SecureUtilize accurate stream : YesDefeat audio cache : YesMake use of C2 pointers : No
Read offset correction : 6Overread into Lead-In and Lead-Out : NoFill up missing offset samples with silence : YesDelete leading and trailing silent blocks : NoNull samples used in CRC calculations : YesUsed interface : Native Win32 interface for Win NT & 2000
Used output format : User Defined EncoderSelected bitrate : 128 kBit/sQuality : HighAdd ID3 tag : NoCommand line compressor : C:\Program Files (x86)\Exact Audio Copy\Flac\flac.exeAdditional command line options : -V -8 -T "Genre=%genre%" -T "Artist=%artist%" -T "Title=%title%" -T "Album=%albumtitle%" -T "Date=%year%" -T "Tracknumber=%tracknr%" -T "Comment=%comment%" %source%
TOC of the extracted CD
Track | Start | Length | Start sector | End sector --------------------------------------------------------- 1 | 0:00.00 | 5:07.00 | 0 | 23024 2 | 5:07.00 | 4:47.00 | 23025 | 44549 3 | 9:54.00 | 5:31.00 | 44550 | 69374 4 | 15:25.00 | 5:39.00 | 69375 | 94799 5 | 21:04.00 | 3:02.00 | 94800 | 108449 6 | 24:06.00 | 5:07.00 | 108450 | 131474 7 | 29:13.00 | 3:04.00 | 131475 | 145274 8 | 32:17.00 | 3:55.00 | 145275 | 162899 9 | 36:12.00 | 4:16.00 | 162900 | 182099 10 | 40:28.00 | 5:30.15 | 182100 | 206864
Range status and errors
Selected range
Filename D:\Download\Simone Kopmajer - Taking A Chance On Love (2007)\Simone Kopmajer - Taking A Chance On Love.wav
Peak level 99.2 % Extraction speed 3.0 X Range quality 100.0 % Test CRC AD4BDDBA Copy CRC AD4BDDBA Copy OK
No errors occurred
AccurateRip summary
Track 1 accurately ripped (confidence 2) [D49458E6] (AR v2)Track 2 accurately ripped (confidence 2) [FC30E6AD] (AR v2)Track 3 accurately ripped (confidence 2) [0F572FFE] (AR v2)Track 4 accurately ripped (confidence 2) [D3132B3B] (AR v2)Track 5 accurately ripped (confidence 2) [7F10862A] (AR v2)Track 6 accurately ripped (confidence 2) [FCC5783C] (AR v2)Track 7 accurately ripped (confidence 2) [ADE45D03] (AR v2)Track 8 accurately ripped (confidence 2) [D39C5AB0] (AR v2)Track 9 accurately ripped (confidence 2) [3574E778] (AR v2)Track 10 accurately ripped (confidence 2) [D5700A6B] (AR v2)
All tracks accurately ripped
End of status report
==== Log checksum 0AADC4572DB07C30B43C546AC7D797ED497C5A2174E67636E32B364A4C7D7651 ====

Содержание индексной карты (.CUE)

REM GENRE JazzREM DATE 2007REM DISCID 930AC60AREM COMMENT "ExactAudioCopy v1.0b3"PERFORMER "Simone Kopmajer"TITLE "Taking A Chance On Love"FILE "Simone Kopmajer - Taking A Chance On Love.flac" WAVE TRACK 01 AUDIO TITLE "Don't Let Me Be Lonely Tonight" PERFORMER "Simone Kopmajer" INDEX 01 00:00:00 TRACK 02 AUDIO TITLE "Our Love Is Here To Stay" PERFORMER "Simone Kopmajer" INDEX 00 05:02:30 INDEX 01 05:07:00 TRACK 03 AUDIO TITLE "The Very Thought Of You" PERFORMER "Simone Kopmajer" INDEX 00 09:49:30 INDEX 01 09:54:00 TRACK 04 AUDIO TITLE "Fotografia" PERFORMER "Simone Kopmajer" INDEX 00 15:20:30 INDEX 01 15:25:00 TRACK 05 AUDIO TITLE "Little Boy" PERFORMER "Simone Kopmajer" INDEX 00 20:59:30 INDEX 01 21:04:00 TRACK 06 AUDIO TITLE "Close To You" PERFORMER "Simone Kopmajer" INDEX 00 24:01:30 INDEX 01 24:06:00 TRACK 07 AUDIO TITLE "Taking A Chance On Love" PERFORMER "Simone Kopmajer" INDEX 00 29:08:30 INDEX 01 29:13:00 TRACK 08 AUDIO TITLE "I Wish You Love" PERFORMER "Simone Kopmajer" INDEX 00 32:12:30 INDEX 01 32:17:00 TRACK 09 AUDIO TITLE "No More Blues" PERFORMER "Simone Kopmajer" INDEX 00 36:07:30 INDEX 01 36:12:00 TRACK 10 AUDIO TITLE "Blame It In My Youth" PERFORMER "Simone Kopmajer" INDEX 00 40:23:30 INDEX 01 40:28:00


[torrentc.info]_t_5604146.torrent
Торрент: Зарегистрирован ·  [ 2018-08-25 22:32 ] ·  ac935fbd2714447d688075fe48c93aeb0bfd99fe

11 KB

Статус: проверено
Скачан: 0 раз
Размер: 266 MB
Оценка: 
(Голосов: 0)
Сказали спасибо: 0  Спасибо
Похожие темы
[Профиль]    [ЛС]
Показать сообщения:    
Ответить на тему

Текущее время: Сегодня 01:07

Часовой пояс: GMT + 7



Вы не можете начинать темы
Вы не можете отвечать на сообщения
Вы не можете редактировать свои сообщения
Вы не можете удалять свои сообщения
Вы не можете голосовать в опросах
Вы не можете прикреплять файлы к сообщениям
Вы можете скачивать файлы