[TR24][OF] The Proclaimers - Angry Cyclist - 2018 (Folk-Rock)

Ответить на тему
Статистика раздачи [Обновить пиров]
Размер:  812 MB   |    Зарегистрирован:  30 дней   |    Скачан:  0 раз

Полного источника не было: Никогда

 
   
 
 
 
Автор Сообщение

torrentc.info

Создавать темы 20-Авг-2018 04:05

[Цитировать]


The Proclaimers

Angry Cyclist



• Формат файла записи | Источник записи: [TR24][OF]
• Наличие водяных знаков: Нет
• Страна исполнителя: UK
• Год издания релиза: 2018
• Жанр: Folk-Rock
• Издатель (лейбл): Cooking Vinyl
• Продолжительность: 00:37:33
• Источник, релизер: BNMus
• WEB 7digital
• Формат файла: FLAC (*.flac)
• Тип рипа: tracks
• Разрядность: 24/96
• Формат файла: WAV (flac.ape.wv)
• Количество каналов: 2.0
• Наличие сканов: front

01 - Angry Cyclist (00:02:26)
02 - Stretch (00:02:55)
03 - Streets Of Edinburgh (00:03:46)
04 - Then It Comes To Me (00:03:06)
05 - You Make Me Happy (00:02:27)
06 - Looted (00:03:00)
07 - The Hours Between (00:03:16)
08 - Information (00:02:43)
09 - Sometimes It's The Fools (00:02:57)
10 - A Way With Words (00:02:11)
11 - Classy (00:02:38)
12 - The Battle Of The Booze (00:03:34)
13 - I'd Ask The Questions (00:02:28)
-

• Замер динамического диапазона •

foobar2000 1.3.7 / Dynamic Range Meter 1.1.1log date: 2018-08-09 22:15:38
--------------------------------------------------------------------------------Analyzed: The Proclaimers / Angry Cyclist--------------------------------------------------------------------------------
DR Peak RMS Duration Track--------------------------------------------------------------------------------DR5 -1.20 dB -8.87 dB 2:27 01-Angry CyclistDR6 -1.20 dB -7.84 dB 2:55 02-StretchDR6 -1.20 dB -8.98 dB 3:46 03-Streets of EdinburghDR6 -1.20 dB -8.30 dB 3:06 04-Then It Comes to MeDR5 -1.21 dB -7.30 dB 2:27 05-You Make Me HappyDR6 -1.20 dB -7.90 dB 3:01 06-LootedDR6 -1.20 dB -9.50 dB 3:16 07-The Hours BetweenDR5 -1.20 dB -7.42 dB 2:43 08-InformationDR6 -1.20 dB -7.48 dB 2:58 09-Sometimes It's the FoolsDR5 -1.20 dB -7.60 dB 2:12 10-A Way with WordsDR5 -1.20 dB -7.70 dB 2:38 11-ClassyDR6 -1.20 dB -7.74 dB 3:35 12-The Battle of the BoozeDR6 -1.20 dB -8.32 dB 2:29 13-I'd Ask the Questions--------------------------------------------------------------------------------
Number of tracks: 13Official DR value: DR6
Samplerate: 96000 HzChannels: 2Bits per sample: 24Bitrate: 3024 kbpsCodec: FLAC================================================================================
-

• Скриншот спектра частот •

-


[torrentc.info]_t_5602635.torrent
Торрент: Зарегистрирован ·  [ 2018-08-20 04:05 ] ·  08acdb6a8435005ea1ae72c579b3864cc51941ff

17 KB

Статус: проверено
Скачан: 0 раз
Размер: 812 MB
Оценка: 
(Голосов: 0)
Сказали спасибо: 0  Спасибо
Похожие темы
[Профиль]    [ЛС]
Показать сообщения:    
Ответить на тему

Текущее время: Сегодня 19:55

Часовой пояс: GMT + 7



Вы не можете начинать темы
Вы не можете отвечать на сообщения
Вы не можете редактировать свои сообщения
Вы не можете удалять свои сообщения
Вы не можете голосовать в опросах
Вы не можете прикреплять файлы к сообщениям
Вы можете скачивать файлы