[TR24][OF] The Beths - Future Me Hates Me - 2018 (Indie Rock)

Ответить на тему
Статистика раздачи [Обновить пиров]
Размер:  454 MB   |    Зарегистрирован:  2 месяца 26 дней   |    Скачан:  0 раз

Полного источника не было: Никогда

 
   
 
 
 
Автор Сообщение

torrentc.info

Создавать темы 20-Авг-2018 04:05

[Цитировать]


The Beths

Future Me Hates Me



• Формат файла записи | Источник записи: [TR24][OF]
• Наличие водяных знаков: Нет
• Страна исполнителя: USA
• Год издания релиза: 2018
• Жанр: Indie Rock
• Издатель (лейбл): Carpark Records
• Продолжительность: 00:38:36
• Источник, релизер: BNMus
• WEB 7digital
• Формат файла: FLAC (*.flac)
• Тип рипа: tracks
• Разрядность: 24/44,1
• Формат файла: WAV (flac.ape.wv)
• Количество каналов: 2.0
• Наличие сканов: front

01 - Great No One (00:03:22)
02 - Future Me Hates Me (00:04:05)
03 - Uptown Girl (00:02:31)
04 - You Wouldn't Like Me (00:03:32)
05 - Not Running (00:03:51)
06 - Little Death (00:04:54)
07 - Happy Unhappy (00:03:29)
08 - River Run Lvl 1 (00:04:06)
09 - Whatever (00:04:24)
10 - Less Than Thou (00:04:17)
-

• Замер динамического диапазона •

foobar2000 1.3.17 / Замер динамического диапазона (DR) 1.1.1Дата отчёта: 2018-08-19 21:24:47
--------------------------------------------------------------------------------Анализ: The Beths / Future Me Hates Me--------------------------------------------------------------------------------
DR Пики RMS Продолжительность трека--------------------------------------------------------------------------------DR7 -0.08 дБ -8.84 дБ 3:23 01-Great No OneDR8 -0.08 дБ -9.31 дБ 4:06 02-Future Me Hates MeDR8 -0.08 дБ -9.32 дБ 2:31 03-Uptown GirlDR8 -0.08 дБ -9.80 дБ 3:32 04-You Wouldn't Like MeDR8 -0.08 дБ -8.92 дБ 3:52 05-Not RunningDR8 -0.08 дБ -10.02 дБ 4:55 06-Little DeathDR8 -0.08 дБ -9.10 дБ 3:29 07-Happy UnhappyDR8 -0.08 дБ -10.66 дБ 4:07 08-River Run Lvl 1DR8 -0.08 дБ -9.60 дБ 4:24 09-WhateverDR8 -0.08 дБ -11.76 дБ 4:18 10-Less Than Thou--------------------------------------------------------------------------------
Количество треков: 10Реальные значения DR: DR8
Частота: 44100 ГцКаналов: 2Разрядность: 24Битрейт: 1501 кбит/сКодек: FLAC================================================================================
-

• Скриншот спектра частот •

-


[torrentc.info]_t_5602655.torrent
Торрент: Зарегистрирован ·  [ 2018-08-20 04:05 ] ·  a5e994604f5b6e329911fa2b7b9cba574ff4d8e7

19 KB

Статус: проверено
Скачан: 0 раз
Размер: 454 MB
Оценка: 
(Голосов: 0)
Сказали спасибо: 0  Спасибо
Похожие темы
[Профиль]    [ЛС]
Показать сообщения:    
Ответить на тему

Текущее время: Сегодня 20:55

Часовой пояс: GMT + 7



Вы не можете начинать темы
Вы не можете отвечать на сообщения
Вы не можете редактировать свои сообщения
Вы не можете удалять свои сообщения
Вы не можете голосовать в опросах
Вы не можете прикреплять файлы к сообщениям
Вы можете скачивать файлы