(Classic Rock) [CD] The Guess Who - The Future Is What It Used To Be - 2018, FLAC (image+.cue), lossless

Ответить на тему
Статистика раздачи [Обновить пиров]
Размер:  285 MB   |    Зарегистрирован:  1 месяц   |    Скачан:  0 раз

Полного источника не было: Никогда

Личеров:  1  [  0 KB/s  ]   Подробная статистика скачивающих
 
   
 
 
 
Автор Сообщение

torrentc.info

Создавать темы 19-Авг-2018 05:00

[Цитировать]


The Guess Who

The Future Is What It Used To Be




• Жанр: Classic Rock
• Носитель: CD
• Год издания: 2018
• Издатель (лейбл) Cleopatra Records
• Страна исполнителя (группы): Canada
• Аудиокодек: FLAC (*.flac)
• Тип рипа: image+.cue
• Продолжительность: 00:41:20
• Источник (релизер): Deris ®
• Наличие сканов: да

01. When We Were Young (00:03:12)
02. Runnin' Blind (00:03:45)
03. Talks All The Time (00:03:24)
04. Baby's Come Around (00:05:19)
05. Haunted (00:04:38)
06. In America (00:03:29)
07. Playin' On The Radio (00:04:42)
08. Give It A Try (00:04:10)
09. Good Girl (00:03:25)
10. Long Day (00:05:10)
-

Замер динамического диапазона

foobar2000 1.3.13 / Замер динамического диапазона (DR) 1.1.1Дата отчёта: 2018-08-17 13:31:55
--------------------------------------------------------------------------------Анализ: The Guess Who / The Future Is What It Used To Be--------------------------------------------------------------------------------
DR Пики RMS Продолжительность трека--------------------------------------------------------------------------------DR6 -0.04 дБ -7.15 дБ 3:13 01-When We Were YoungDR7 -0.16 дБ -8.00 дБ 3:45 02-Runnin' BlindDR7 -0.40 дБ -9.78 дБ 3:25 03-Talks All The TimeDR7 -0.04 дБ -9.13 дБ 5:19 04-Baby's Come AroundDR6 -0.41 дБ -9.39 дБ 4:39 05-HauntedDR6 -0.29 дБ -7.89 дБ 3:29 06-In AmericaDR6 -0.13 дБ -7.93 дБ 4:43 07-Playin' On The RadioDR6 -0.06 дБ -7.84 дБ 4:11 08-Give It A TryDR6 -0.23 дБ -6.87 дБ 3:25 09-Good GirlDR7 -0.36 дБ -9.01 дБ 5:11 10-Long Day--------------------------------------------------------------------------------
Количество треков: 10Реальные значения DR: DR6
Частота: 44100 ГцКаналов: 2Разрядность: 16Битрейт: 930 кбит/сКодек: FLAC================================================================================
-

Лог создания рипа

Exact Audio Copy V1.0 beta 3 from 29. August 2011
EAC extraction logfile from 16. August 2018, 0:33
The Guess Who / The Future Is What It Used To Be
Used drive : PIONEER BD-RW BDR-TD03 Adapter: 0 ID: 1
Read mode : SecureUtilize accurate stream : YesDefeat audio cache : YesMake use of C2 pointers : No
Read offset correction : 667Overread into Lead-In and Lead-Out : NoFill up missing offset samples with silence : YesDelete leading and trailing silent blocks : NoNull samples used in CRC calculations : YesUsed interface : Native Win32 interface for Win NT & 2000
Used output format : User Defined EncoderSelected bitrate : 768 kBit/sQuality : HighAdd ID3 tag : NoCommand line compressor : C:\Program Files (x86)\Exact Audio Copy\FLAC\FLAC.EXEAdditional command line options : -6 -V -T "ARTIST=%artist%" -T "TITLE=%title%" -T "ALBUM=%albumtitle%" -T "DATE=%year%" -T "TRACKNUMBER=%tracknr%" -T "GENRE=%genre%" -T "COMMENT=%comment%" -T "BAND=%albuminterpret%" -T "ALBUMARTIST=%albuminterpret%" -T "COMPOSER=%composer%" %haslyrics%--tag-from-file=LYRICS="%lyricsfile%"%haslyrics% -T "DISCNUMBER=%cdnumber%" -T "TOTALDISCS=%totalcds%" -T "TOTALTRACKS=%numtracks%" %hascover%--picture="%coverfile%"%hascover% %source% -o %dest%
TOC of the extracted CD
Track | Start | Length | Start sector | End sector --------------------------------------------------------- 1 | 0:00.00 | 3:12.62 | 0 | 14461 2 | 3:12.62 | 3:45.11 | 14462 | 31347 3 | 6:57.73 | 3:24.57 | 31348 | 46704 4 | 10:22.55 | 5:19.13 | 46705 | 70642 5 | 15:41.68 | 4:38.46 | 70643 | 91538 6 | 20:20.39 | 3:29.30 | 91539 | 107243 7 | 23:49.69 | 4:42.69 | 107244 | 128462 8 | 28:32.63 | 4:10.59 | 128463 | 147271 9 | 32:43.47 | 3:25.37 | 147272 | 162683 10 | 36:09.09 | 5:10.70 | 162684 | 186003
Range status and errors
Selected range
Filename C:\Users\Deris\Desktop\kpnemo.eu\GssHu\The Guess Who - The Future Is What It Used To Be.wav
Peak level 99.5 % Extraction speed 1.6 X Range quality 99.9 % Test CRC D5D4BD01 Copy CRC D5D4BD01 Copy OK
No errors occurred
AccurateRip summary
Track 1 not present in databaseTrack 2 not present in databaseTrack 3 not present in databaseTrack 4 not present in databaseTrack 5 not present in databaseTrack 6 not present in databaseTrack 7 not present in databaseTrack 8 not present in databaseTrack 9 not present in databaseTrack 10 not present in database
None of the tracks are present in the AccurateRip database
End of status report
---- CUETools DB Plugin V2.1.3
[CTDB TOCID: KZbqoaZeLFGGWF9_YxtMa3QimKY-] disk not present in database, Submit result: KZbqoaZeLFGGWF9_YxtMa3QimKY- has been uploaded
==== Log checksum 3E2335677DDB7EE199AB0132664E75A5C12E2B9AE79C49A860AD0CA01D7D8D66 ====
-

Содержание индексной карты

REM GENRE "Classic Rock"REM DATE 2018REM DISCID 7709B00AREM COMMENT "ExactAudioCopy v1.0b3"PERFORMER "The Guess Who"TITLE "The Future Is What It Used To Be"FILE "The Guess Who - The Future Is What It Used To Be.flac" WAVE TRACK 01 AUDIO TITLE "When We Were Young" PERFORMER "The Guess Who" INDEX 01 00:00:00 TRACK 02 AUDIO TITLE "Runnin' Blind" PERFORMER "The Guess Who" INDEX 01 03:12:62 TRACK 03 AUDIO TITLE "Talks All The Time" PERFORMER "The Guess Who" INDEX 01 06:57:73 TRACK 04 AUDIO TITLE "Baby's Come Around" PERFORMER "The Guess Who" INDEX 01 10:22:55 TRACK 05 AUDIO TITLE "Haunted" PERFORMER "The Guess Who" INDEX 01 15:41:68 TRACK 06 AUDIO TITLE "In America" PERFORMER "The Guess Who" INDEX 01 20:20:39 TRACK 07 AUDIO TITLE "Playin' On The Radio" PERFORMER "The Guess Who" INDEX 01 23:49:69 TRACK 08 AUDIO TITLE "Give It A Try" PERFORMER "The Guess Who" INDEX 01 28:32:63 TRACK 09 AUDIO TITLE "Good Girl" PERFORMER "The Guess Who" INDEX 01 32:43:47 TRACK 10 AUDIO TITLE "Long Day" PERFORMER "The Guess Who" INDEX 01 36:09:09
-

Лог проверки качества

DON'T MODIFY THIS FILE
-----------------------
PERFORMER: auCDtect Task Manager, ver. 1.6.0 RC1 build 1.6.0.1Copyright (c) 2008-2010 y-soft. All rights reservedhttp://y-soft.org
ANALYZER: auCDtect: CD records authenticity detector, version 0.8.2Copyright (c) 2004 Oleg Berngardt. All rights reserved.Copyright (c) 2004 Alexander Djourik. All rights reserved.
FILE: The Guess Who - The Future Is What It Used To Be.flac Size: 288303101 Hash: B7E739F97BCD24DA82FA2ED3096B1097 Accuracy: -m0 Conclusion: CDDA 100% Signature: 0C6048D44B07B9B9066C31BA258F49A3E3961843
--


[torrentc.info]_t_5602112.torrent
Торрент: Зарегистрирован ·  [ 2018-08-19 05:00 ] ·  daef525ab39ae6a2251eb7213ebf76e21ed7088f

12 KB

Статус: проверено
Скачан: 0 раз
Размер: 285 MB
Оценка: 
(Голосов: 0)
Сказали спасибо: 0  Спасибо
Похожие темы
[Профиль]    [ЛС]
Показать сообщения:    
Ответить на тему

Текущее время: Сегодня 12:11

Часовой пояс: GMT + 7



Вы не можете начинать темы
Вы не можете отвечать на сообщения
Вы не можете редактировать свои сообщения
Вы не можете удалять свои сообщения
Вы не можете голосовать в опросах
Вы не можете прикреплять файлы к сообщениям
Вы можете скачивать файлы