Будь круче / Be Cool (Ф. Гэри Грей / F. Gary Gray) [2005, США, комедия, криминал, музыка, BDRip] DVO (Ren-TV)

Ответить на тему
Статистика раздачи [Обновить пиров]
Размер:  1.41 GB   |    Зарегистрирован:  2 месяца 5 дней   |    Скачан:  0 раз

Полного источника не было: Никогда

 
   
 
 
 
Автор Сообщение

torrentc.info

Создавать темы 14-Авг-2018 23:22

[Цитировать]

Будь круче
Be Cool
Год выхода: 2005
Страна: США
Жанр: комедия, криминал, музыка
Продолжительность: 01:59:36
Перевод: Профессиональный (двухголосый закадровый) - Ren-TV
Субтитры: отсутствуют
Оригинальная аудиодорожка: английский-Режиссёр: Ф. Гэри Грей: F. Gary Gray
В ролях: Джон Траволта, Ума Турман, Винс Вон, Седрик «Развлекатель», Дуэйн Джонсон, Харви Кейтель, Андре Бенджамин, Джеймс Вудс, Кристина Милиан, Роберт Пасторелли.-О фильме: Чили Палмер возвращается. Гангстер, переквалифицировавшийся в кинопродюсера, решил не полагаться на неустойчивые доходы в киноиндустрии и занялся музыкальным бизнесом. Он ссорится с русской мафией и рэпперами-гангстерами и берет под свое крыло талантливую, но вздорную молодую певицу Линду Мун.
Сплав деловой хватки и бандитского опыта помогает Чили добиваться своего в любых ситуациях и в любых местах — от звукозаписывающей студии до концерта «Аэросмита» и вручения премий MTV. Принесет ли эта игра с огнем успех, и создадут ли Чили и Линда новый хит?
-Данный перевод появляется на трекере впервые.
Перевод записан с телеканала "Новое телевидение" (Караганда). Качество звука весьма посредственное.
Текст читают: Дмитрий Филимонов, Марина Бакина.-
Семпл: http://sendfile.su/1436178-Качество: BDRipФормат файла: AVI
Видео: XviD, 720x304 (2,35:1), 23,976 fps, ~1358 kbps, 0.259 bit/pixel
Аудио #1: [RUS] 48 kHz, AC3, 1 ch, 96 kbps
Аудио #2: [ENG] 48 kHz, AC3, 2 ch, 224 kbps

Mediainfo

GeneralComplete name : H:\Раздачи\Be.Cool.2005.BDRip.Ren-TV.Eng.aviFormat : AVIFormat/Info : Audio Video InterleaveFile size : 1.41 GiBDuration : 1 h 59 minOverall bit rate : 1 692 kb/sMovie name : Be Cool 2005Director : F. Gary GrayRecorded date : 17.03.2014Writing application : VirtualDubMod 1.5.10.2 (build 2540/release)Writing library : VirtualDubMod build 2540/releaseCopyright : TorrentcComment : MooN_WalkeR
VideoID : 0Format : MPEG-4 VisualFormat profile : Advanced Simple@L5Format settings : BVOP1 / Custom MatrixFormat settings, BVOP : 1Format settings, QPel : NoFormat settings, GMC : No warppointsFormat settings, Matrix : CustomCodec ID : XVIDCodec ID/Hint : XviDDuration : 1 h 59 minBit rate : 1 358 kb/sWidth : 720 pixelsHeight : 304 pixelsDisplay aspect ratio : 2.35:1Frame rate : 23.976 (24000/1001) FPSOriginal frame rate : 23.976 (23976/1000) FPSColor space : YUVChroma subsampling : 4:2:0Bit depth : 8 bitsScan type : ProgressiveCompression mode : LossyBits/(Pixel*Frame) : 0.259Stream size : 1.13 GiB (80%)Writing library : XviD 65
Audio #1ID : 1Format : AC-3Format/Info : Audio Coding 3Codec ID : 2000Duration : 1 h 59 minBit rate mode : ConstantBit rate : 96.0 kb/sChannel(s) : 1 channelChannel positions : Front: CSampling rate : 48.0 kHzFrame rate : 31.250 FPS (1536 SPF)Bit depth : 16 bitsCompression mode : LossyStream size : 82.1 MiB (6%)Alignment : Split accross interleavesInterleave, duration : 42 ms (1.00 video frame)Interleave, preload duratio : 500 msService kind : Complete Main
Audio #2ID : 2Format : AC-3Format/Info : Audio Coding 3Codec ID : 2000Duration : 1 h 59 minBit rate mode : ConstantBit rate : 224 kb/sChannel(s) : 2 channelsChannel positions : Front: L RSampling rate : 48.0 kHzFrame rate : 31.250 FPS (1536 SPF)Bit depth : 16 bitsCompression mode : LossyStream size : 192 MiB (13%)Alignment : Split accross interleavesInterleave, duration : 42 ms (1.00 video frame)Interleave, preload duratio : 500 msService kind : Complete Main

Скриншоты



[torrentc.info]_t_5600198.torrent
Торрент: Зарегистрирован ·  [ 2018-08-14 23:22 ] ·  30cca5511cdd22dfa3e5131087d491070586a77a

15 KB

Статус: проверено
Скачан: 0 раз
Размер: 1.41 GB
Оценка: 
(Голосов: 0)
Сказали спасибо: 0  Спасибо
Похожие темы
[Профиль]    [ЛС]
Показать сообщения:    
Ответить на тему

Текущее время: Сегодня 19:55

Часовой пояс: GMT + 7



Вы не можете начинать темы
Вы не можете отвечать на сообщения
Вы не можете редактировать свои сообщения
Вы не можете удалять свои сообщения
Вы не можете голосовать в опросах
Вы не можете прикреплять файлы к сообщениям
Вы можете скачивать файлы