[VIDEO] Тор: Трилогия / Thor: Trilogy (Кеннет Брана / Kenneth Branagh, Алан Тейлор / Alan Taylor, Тайка Вайтити / Taika Waititi) [2011-2017, фэнтези, боевик, приключения, BDRip] [MP4, 1280x]

Ответить на тему
Статистика раздачи [Обновить пиров]
Размер:  7.42 GB   |    Зарегистрирован:  3 месяца 4 дня   |    Скачан:  0 раз

Полного источника не было: Никогда

 
   
 
 
 
Автор Сообщение

torrentc.info

Создавать темы 12-Авг-2018 21:35

[Цитировать]

Тор: Трилогия / Thor: Trilogy

Тор 2011

Тор / Thor- - -Год выхода: 2011
Страна: США
Жанр: фэнтези, боевик, драма, приключения
Продолжительность: 01:54:50
Перевод №1: русский Профессиональный (полное дублирование) Blu-Ray CEE
Перевод №2: украинский Профессиональный (полное дублирование) DVD R5
Перевод №3: русский Авторский (одноголосый, закадровый) Ю.Сербин
Перевод №4: русский Одноголосый (закадровый) Zamez
Оригинальная дорожка: Есть
Субтитры: русские (полные Blu-ray CEE), (полные -"voronine"), (SDH-"voronine"), украинские (полные), английские (полные), (SDH)
-Режиссер: Кеннет Брана / Kenneth Branagh-В ролях: Натали Портман, Энтони Хопкинс, Крис Хемсворт, Том Хиддлстон, Стеллан Скарсгард, Кэт Деннингс, Кларк Грегг, Идрис Эльба, Колм Фиор, Рэй Стивенсон и другие .-Описание: Эпическое приключение происходит как на нашей планете Земля, так и в вымышленном королевстве богов Асгарде. В центре истории — Могучий Тор, сильный, но высокомерный воин, чьи безрассудные поступки возрождают древнюю войну в Асгарде. Тора отправляют в ссылку на Землю, лишают сил и заставляют жить среди обычных людей в качестве наказания. Тор узнает, сколько требуется сил, чтобы стать настоящим героем, когда самый опасный злодей его мира направляет темные силы поглотить Землю .-[img]https://rating.kinopoisk.ru/258941.gif[/img] -Качество: BDRip / рип с Blu-ray disc 1080p [CEE]
Формат файла: MP4
Видео кодек: H.264
Аудио кодек: AAC
Видео: 1280x544 AR:2.35 3000 kbps 23.976 fps
Аудио №1: [Russian] 2ch 48 kHz 128 kbps - [Dub] Профессиональный (полное дублирование) Blu-Ray CEE
Аудио №2: [Ukrainian] 2ch 48 kHz 128 kbps - [Dub] Профессиональный (полное дублирование) DVD R5
Аудио №3: [Russian] 2ch 48 kHz 128 kbps - [VO] Авторский (одноголосый, закадровый) Ю.Сербин
Аудио №4: [Russian] 2ch 48 kHz 128 kbps - [VO] Одноголосый (закадровый) Zamez
Аудио №5: [English] 2ch 48 kHz 128 kbps - Original
-

Logx264

avs [info]: 1280x544p 1:1 @ 24000/1001 fps (cfr)
x264 [info]: using SAR=1/1
x264 [info]: using cpu capabilities: MMX2 SSE2Fast SSSE3 SSE4.2 AVX FMA3 BMI2 AVX2
x264 [info]: profile High, level 4.1
x264 [info]: frame I:1254 Avg QP:16.06 size: 90926
x264 [info]: frame P:44004 Avg QP:19.91 size: 28112
x264 [info]: frame B:119953 Avg QP:21.58 size: 10276
x264 [info]: consecutive B-frames: 4.8% 9.8% 11.1% 17.4% 14.5% 33.3% 4.6% 1.5% 1.1% 1.0% 0.9%
x264 [info]: mb I I16..4: 5.5% 76.4% 18.1%
x264 [info]: mb P I16..4: 1.1% 9.0% 1.2% P16..4: 33.9% 36.9% 10.0% 0.0% 0.0% skip: 8.0%
x264 [info]: mb B I16..4: 0.1% 1.0% 0.1% B16..8: 37.0% 18.7% 2.8% direct: 5.1% skip:35.3% L0:45.4% L1:44.6% BI:10.1%
x264 [info]: 8x8 transform intra:79.9% inter:63.2%
x264 [info]: direct mvs spatial:96.7% temporal:3.3%
x264 [info]: coded y,uvDC,uvAC intra: 85.2% 82.7% 55.3% inter: 25.2% 20.1% 6.4%
x264 [info]: i16 v,h,dc,p: 17% 15% 6% 63%
x264 [info]: i8 v,h,dc,ddl,ddr,vr,hd,vl,hu: 6% 6% 5% 11% 16% 14% 16% 12% 14%
x264 [info]: i4 v,h,dc,ddl,ddr,vr,hd,vl,hu: 8% 7% 5% 10% 17% 14% 15% 11% 13%
x264 [info]: i8c dc,h,v,p: 39% 24% 17% 20%
x264 [info]: Weighted P-Frames: Y:19.4% UV:13.8%
x264 [info]: ref P L0: 47.7% 9.1% 16.6% 7.1% 5.9% 4.1% 3.3% 2.0% 1.8% 1.7% 0.5% 0.1%
x264 [info]: ref B L0: 72.1% 11.7% 6.1% 3.2% 2.7% 1.8% 1.4% 0.7% 0.3%
x264 [info]: ref B L1: 94.2% 5.8%
x264 [info]: kb/s:2999.67
encoded 165211 frames, 8.73 fps, 2999.67 kb/s

ТХ/MediaInfo

GeneralComplete name : K:\Torrents\Thor Trilogy.2011-2017.BDRip.x264.1280x\Thor.2011.BDRip.x264.1280x.rip by Frost O.S.mp4Format : MPEG-4Format profile : 3GPP Release 6 GeneralCodec ID : 3gg6 (isom/3gg6/mp42)File size : 2.93 GiBDuration : 1 h 54 minOverall bit rate mode : VariableOverall bit rate : 3 651 kb/sEncoded date : UTC 2018-08-10 11:49:16Tagged date : UTC 2018-08-10 11:49:16
VideoID : 1Format : AVCFormat/Info : Advanced Video CodecFormat profile : High@L4.1Format settings : CABAC / 10 Ref FramesFormat settings, CABAC : YesFormat settings, RefFrames : 10 framesCodec ID : avc1Codec ID/Info : Advanced Video CodingDuration : 1 h 54 minBit rate : 3 000 kb/sMaximum bit rate : 16.1 Mb/sWidth : 1 280 pixelsHeight : 544 pixelsDisplay aspect ratio : 2.35:1Frame rate mode : ConstantFrame rate : 23.976 (24000/1001) FPSColor space : YUVChroma subsampling : 4:2:0Bit depth : 8 bitsScan type : ProgressiveBits/(Pixel*Frame) : 0.180Stream size : 2.41 GiB (82%)Writing library : x264 core 152 r2851 ba24899Encoding settings : cabac=1 / ref=10 / deblock=1:-2:-2 / analyse=0x3:0x113 / me=umh / subme=11 / psy=1 / psy_rd=1.00:0.00 / mixed_ref=1 / me_range=32 / chroma_me=1 / trellis=2 / 8x8dct=1 / cqm=0 / deadzone=21,11 / fast_pskip=0 / chroma_qp_offset=-2 / threads=6 / lookahead_threads=1 / sliced_threads=0 / nr=0 / decimate=0 / interlaced=0 / bluray_compat=0 / constrained_intra=0 / bframes=10 / b_pyramid=2 / b_adapt=2 / b_bias=0 / direct=3 / weightb=1 / open_gop=0 / weightp=2 / keyint=250 / keyint_min=23 / scenecut=40 / intra_refresh=0 / rc=2pass / mbtree=0 / bitrate=3000 / ratetol=1.0 / qcomp=0.70 / qpmin=0 / qpmax=69 / qpstep=4 / cplxblur=20.0 / qblur=0.5 / ip_ratio=1.40 / pb_ratio=1.30 / aq=2:0.80Encoded date : UTC 2018-08-06 14:50:05Tagged date : UTC 2018-08-10 11:50:37Color range : LimitedColor primaries : BT.709Transfer characteristics : BT.709Matrix coefficients : BT.709
Audio #1ID : 2Format : AACFormat/Info : Advanced Audio CodecFormat profile : LCCodec ID : mp4a-40-2Duration : 1 h 54 minBit rate mode : VariableBit rate : 128 kb/sMaximum bit rate : 134 kb/sChannel(s) : 2 channelsChannel positions : Front: L RSampling rate : 48.0 kHzFrame rate : 46.875 FPS (1024 SPF)Compression mode : LossyStream size : 105 MiB (4%)Title : Russian / Dub, Blu-Ray CEEEncoded date : UTC 2018-08-10 10:05:22Tagged date : UTC 2018-08-10 11:50:37
Audio #2ID : 3Format : AACFormat/Info : Advanced Audio CodecFormat profile : LCCodec ID : mp4a-40-2Duration : 1 h 54 minBit rate mode : VariableBit rate : 128 kb/sMaximum bit rate : 137 kb/sChannel(s) : 2 channelsChannel positions : Front: L RSampling rate : 48.0 kHzFrame rate : 46.875 FPS (1024 SPF)Compression mode : LossyStream size : 105 MiB (4%)Title : Ukrainian / Dub, DVD R5Encoded date : UTC 2018-08-10 10:13:43Tagged date : UTC 2018-08-10 11:50:37
Audio #3ID : 4Format : AACFormat/Info : Advanced Audio CodecFormat profile : LCCodec ID : mp4a-40-2Duration : 1 h 54 minBit rate mode : VariableBit rate : 128 kb/sMaximum bit rate : 137 kb/sChannel(s) : 2 channelsChannel positions : Front: L RSampling rate : 48.0 kHzFrame rate : 46.875 FPS (1024 SPF)Compression mode : LossyStream size : 105 MiB (4%)Title : Russian / VO, SerbinEncoded date : UTC 2018-08-10 10:16:59Tagged date : UTC 2018-08-10 11:50:37
Audio #4ID : 5Format : AACFormat/Info : Advanced Audio CodecFormat profile : LCCodec ID : mp4a-40-2Duration : 1 h 54 minBit rate mode : VariableBit rate : 128 kb/sMaximum bit rate : 136 kb/sChannel(s) : 2 channelsChannel positions : Front: L RSampling rate : 48.0 kHzFrame rate : 46.875 FPS (1024 SPF)Compression mode : LossyStream size : 105 MiB (4%)Title : Russian / VO, ZamezEncoded date : UTC 2018-08-10 10:20:58Tagged date : UTC 2018-08-10 11:50:37
Audio #5ID : 6Format : AACFormat/Info : Advanced Audio CodecFormat profile : LCCodec ID : mp4a-40-2Duration : 1 h 54 minBit rate mode : VariableBit rate : 128 kb/sMaximum bit rate : 138 kb/sChannel(s) : 2 channelsChannel positions : Front: L RSampling rate : 48.0 kHzFrame rate : 46.875 FPS (1024 SPF)Compression mode : LossyStream size : 105 MiB (4%)Title : English / OriginalEncoded date : UTC 2018-08-10 10:01:34Tagged date : UTC 2018-08-10 11:50:37
Text #1ID : 7Format : Timed TextCodec ID : tx3gDuration : 1 h 54 minBit rate mode : VariableBit rate : 67 b/sStream size : 56.6 KiB (0%)Title : Russian / Full Blu-ray CEEForced : NoEncoded date : UTC 2018-08-10 11:12:43Tagged date : UTC 2018-08-10 11:50:37
Text #2ID : 8Format : Timed TextCodec ID : tx3gDuration : 1 h 54 minBit rate mode : VariableBit rate : 75 b/sStream size : 62.7 KiB (0%)Title : Russian / Full voronineForced : NoEncoded date : UTC 2018-08-10 11:12:43Tagged date : UTC 2018-08-10 11:50:37
Text #3ID : 9Format : Timed TextCodec ID : tx3gDuration : 1 h 54 minBit rate mode : VariableBit rate : 79 b/sStream size : 66.1 KiB (0%)Title : Russian / SDH voronineForced : NoEncoded date : UTC 2018-08-10 11:12:43Tagged date : UTC 2018-08-10 11:50:37
Text #4ID : 10Format : Timed TextCodec ID : tx3gDuration : 1 h 54 minBit rate mode : VariableBit rate : 60 b/sStream size : 50.1 KiB (0%)Title : Ukrainian / FullForced : NoEncoded date : UTC 2018-08-10 11:12:43Tagged date : UTC 2018-08-10 11:50:37
Text #5ID : 11Format : Timed TextCodec ID : tx3gDuration : 1 h 54 minBit rate mode : VariableBit rate : 44 b/sStream size : 36.9 KiB (0%)Title : English / FullForced : NoEncoded date : UTC 2018-08-10 11:12:43Tagged date : UTC 2018-08-10 11:50:37
Text #6ID : 12Format : Timed TextCodec ID : tx3gDuration : 1 h 54 minBit rate mode : VariableBit rate : 47 b/sStream size : 39.2 KiB (0%)Title : English / SDHForced : NoEncoded date : UTC 2018-08-10 11:12:43Tagged date : UTC 2018-08-10 11:50:37

Тор 2: Царство тьмы 2013

Тор 2: Царство тьмы / Thor: The Dark World- - -Год выхода: 2013
Страна: США
Жанр: фэнтези, боевик, приключения
Продолжительность: 01:52:27
Перевод №1: русский Профессиональный (полное дублирование) Blu-Ray EUR
Перевод №2: русский Профессиональный (полное дублирование) + вставки А. Гаврилова на речь эльфов
Перевод №3: украинский Профессиональный (полное дублирование)
Перевод №4: русский Авторский (одноголосый, закадровый) А.Гаврилов
Оригинальная дорожка: Есть
Субтитры: русские (форсированные), (полные), (полные -"Анастасия Кисиленко (Medveditsa)"), (полные-"Notabenoid"), английские (форсированные), (полные), (SDH), (SDH-Colored)
-Режиссер: Алан Тейлор / Alan Taylor-В ролях: Крис Хемсворт, Натали Портман, Том Хиддлстон, Энтони Хопкинс, Джейми Александер, Рэй Стивенсон, Кэт Деннингс и другие .-Описание: Тору предстоит сразиться за спасение Земли и Девяти Миров от таинственного врага из времен, предшествовавших возникновению вселенной. После событий «Тора» и «Мстителей» главный герой борется за восстановление порядка в космосе, но древняя раса во главе с мстительным Малекитом возвращается, чтобы погрузить вселенную обратно во тьму. Столкнувшись с врагом, которому не способен противостоять ни Один, ни весь Асгард, Тор отправляется в самое рискованное путешествие, которое воссоединит его с Джейн Фостер с Земли и заставит пожертвовать всем ради спасения вселенной .-[img]https://rating.kinopoisk.ru/595938.gif[/img] -Качество: BDRip / рип с Blu-ray disc 1080p [EUR]
Формат файла: MP4
Видео кодек: H.264
Аудио кодек: AAC
Видео: 1280x532 AR:2.41 1800 kbps 23.976 fps
Аудио №1: [Russian] 2ch 48 kHz 128 kbps - [Dub] Профессиональный (полное дублирование) Blu-Ray EUR
Перевод №2: русский Профессиональный (полное дублирование) + вставки А. Гаврилова на речь эльфов
Аудио №3: [Ukrainian] 2ch 48 kHz 128 kbps - [Dub] Профессиональный (полное дублирование)
Аудио №4: [Russian] 2ch 48 kHz 128 kbps - [VO] Авторский (одноголосый, закадровый) А.Гаврилов
Аудио №5: [English] 2ch 48 kHz 128 kbps - Original
-

Logx264

avs [info]: 1280x532p 1:1 @ 24000/1001 fps (cfr)
x264 [info]: using SAR=1/1
x264 [info]: using cpu capabilities: MMX2 SSE2Fast SSSE3 SSE4.2 AVX FMA3 BMI2 AVX2
x264 [info]: profile High, level 4.1
x264 [info]: frame I:1453 Avg QP:15.66 size: 63073
x264 [info]: frame P:42548 Avg QP:20.03 size: 18191
x264 [info]: frame B:117197 Avg QP:22.05 size: 5521
x264 [info]: consecutive B-frames: 4.4% 5.0% 13.6% 32.0% 16.7% 22.2% 3.6% 1.4% 0.4% 0.8%
x264 [info]: mb I I16..4: 7.4% 72.1% 20.5%
x264 [info]: mb P I16..4: 2.1% 9.7% 1.7% P16..4: 36.2% 34.5% 7.1% 0.0% 0.0% skip: 8.9%
x264 [info]: mb B I16..4: 0.2% 1.1% 0.2% B16..8: 35.1% 14.0% 1.5% direct: 2.8% skip:45.0% L0:43.5% L1:48.6% BI: 7.9%
x264 [info]: 8x8 transform intra:72.7% inter:65.6%
x264 [info]: direct mvs spatial:95.4% temporal:4.6%
x264 [info]: coded y,uvDC,uvAC intra: 72.1% 72.4% 36.8% inter: 13.4% 11.2% 3.5%
x264 [info]: i16 v,h,dc,p: 15% 12% 4% 69%
x264 [info]: i8 v,h,dc,ddl,ddr,vr,hd,vl,hu: 10% 6% 5% 10% 14% 14% 15% 13% 15%
x264 [info]: i4 v,h,dc,ddl,ddr,vr,hd,vl,hu: 22% 7% 6% 8% 13% 12% 12% 9% 12%
x264 [info]: i8c dc,h,v,p: 30% 29% 21% 21%
x264 [info]: Weighted P-Frames: Y:13.4% UV:9.0%
x264 [info]: ref P L0: 52.0% 8.1% 16.3% 6.6% 5.3% 4.0% 3.1% 2.2% 1.8% 0.4% 0.1%
x264 [info]: ref B L0: 75.7% 10.8% 5.9% 2.4% 1.7% 2.2% 0.9% 0.4%
x264 [info]: ref B L1: 94.9% 5.1%
x264 [info]: kb/s:1799.98
encoded 161198 frames, 12.09 fps, 1799.98 kb/s

ТХ/MediaInfo

GeneralComplete name : K:\Torrents\Thor Trilogy.2011-2017.BDRip.x264.1280x\Thor The Dark World.2013.BDRip.x264.1280x.rip by Frost O.S.mp4Format : MPEG-4Format profile : Base MediaCodec ID : isom (isom)File size : 1.92 GiBDuration : 1 h 52 minOverall bit rate mode : VariableOverall bit rate : 2 443 kb/sEncoded date : UTC 2018-08-10 12:38:18Tagged date : UTC 2018-08-10 12:38:18Writing application : My MP4Box GUI 0.6.0.6
VideoID : 1Format : AVCFormat/Info : Advanced Video CodecFormat profile : High@L4.1Format settings : CABAC / 9 Ref FramesFormat settings, CABAC : YesFormat settings, RefFrames : 9 framesCodec ID : avc1Codec ID/Info : Advanced Video CodingDuration : 1 h 52 minBit rate : 1 800 kb/sMaximum bit rate : 9 436 kb/sWidth : 1 280 pixelsHeight : 532 pixelsDisplay aspect ratio : 2.40:1Frame rate mode : ConstantFrame rate : 23.976 (24000/1001) FPSColor space : YUVChroma subsampling : 4:2:0Bit depth : 8 bitsScan type : ProgressiveBits/(Pixel*Frame) : 0.110Stream size : 1.41 GiB (73%)Title : Thor The Dark World.2013.BDRip.x264.1280x.rip by Frost O.SWriting library : x264 core 152 r2851 ba24899Encoding settings : cabac=1 / ref=9 / deblock=1:-2:-1 / analyse=0x3:0x113 / me=umh / subme=11 / psy=1 / psy_rd=1.00:0.00 / mixed_ref=1 / me_range=32 / chroma_me=1 / trellis=2 / 8x8dct=1 / cqm=0 / deadzone=21,11 / fast_pskip=0 / chroma_qp_offset=-2 / threads=6 / lookahead_threads=1 / sliced_threads=0 / nr=0 / decimate=0 / interlaced=0 / bluray_compat=0 / constrained_intra=0 / bframes=9 / b_pyramid=2 / b_adapt=2 / b_bias=0 / direct=3 / weightb=1 / open_gop=0 / weightp=2 / keyint=250 / keyint_min=23 / scenecut=40 / intra_refresh=0 / rc=2pass / mbtree=0 / bitrate=1800 / ratetol=1.0 / qcomp=0.70 / qpmin=0 / qpmax=69 / qpstep=4 / cplxblur=20.0 / qblur=0.5 / ip_ratio=1.40 / pb_ratio=1.30 / aq=1:0.80Encoded date : UTC 2018-08-07 14:22:53Tagged date : UTC 2018-08-10 12:38:33Color range : LimitedColor primaries : BT.709Transfer characteristics : BT.709Matrix coefficients : BT.709
Audio #1ID : 2Format : AACFormat/Info : Advanced Audio CodecFormat profile : LCCodec ID : mp4a-40-2Duration : 1 h 52 minBit rate mode : VariableBit rate : 128 kb/sMaximum bit rate : 135 kb/sChannel(s) : 2 channelsChannel positions : Front: L RSampling rate : 48.0 kHzFrame rate : 46.875 FPS (1024 SPF)Compression mode : LossyStream size : 103 MiB (5%)Title : Russian / Dub, Blu-Ray EUREncoded date : UTC 2018-08-10 12:38:27Tagged date : UTC 2018-08-10 12:38:33
Audio #2ID : 3Format : AACFormat/Info : Advanced Audio CodecFormat profile : LCCodec ID : mp4a-40-2Duration : 1 h 52 minBit rate mode : VariableBit rate : 128 kb/sMaximum bit rate : 136 kb/sChannel(s) : 2 channelsChannel positions : Front: L RSampling rate : 48.0 kHzFrame rate : 46.875 FPS (1024 SPF)Compression mode : LossyStream size : 103 MiB (5%)Title : Russian / Dub, plus vstavki Gavrilova na rech elphovEncoded date : UTC 2018-08-10 12:38:28Tagged date : UTC 2018-08-10 12:38:33
Audio #3ID : 4Format : AACFormat/Info : Advanced Audio CodecFormat profile : LCCodec ID : mp4a-40-2Duration : 1 h 52 minBit rate mode : VariableBit rate : 128 kb/sMaximum bit rate : 136 kb/sChannel(s) : 2 channelsChannel positions : Front: L RSampling rate : 48.0 kHzFrame rate : 46.875 FPS (1024 SPF)Compression mode : LossyStream size : 103 MiB (5%)Title : Ukrainian / DubEncoded date : UTC 2018-08-10 12:38:29Tagged date : UTC 2018-08-10 12:38:33
Audio #4ID : 5Format : AACFormat/Info : Advanced Audio CodecFormat profile : LCCodec ID : mp4a-40-2Duration : 1 h 52 minBit rate mode : VariableBit rate : 128 kb/sMaximum bit rate : 137 kb/sChannel(s) : 2 channelsChannel positions : Front: L RSampling rate : 48.0 kHzFrame rate : 46.875 FPS (1024 SPF)Compression mode : LossyStream size : 103 MiB (5%)Title : Russian / VO, GavrilovEncoded date : UTC 2018-08-10 12:38:31Tagged date : UTC 2018-08-10 12:38:33
Audio #5ID : 6Format : AACFormat/Info : Advanced Audio CodecFormat profile : LCCodec ID : mp4a-40-2Duration : 1 h 52 minBit rate mode : VariableBit rate : 128 kb/sMaximum bit rate : 136 kb/sChannel(s) : 2 channelsChannel positions : Front: L RSampling rate : 48.0 kHzFrame rate : 46.875 FPS (1024 SPF)Compression mode : LossyStream size : 103 MiB (5%)Title : English / OriginalEncoded date : UTC 2018-08-10 12:38:32Tagged date : UTC 2018-08-10 12:38:33
Text #1ID : 7Format : Timed TextCodec ID : tx3gDuration : 1 h 43 minBit rate mode : VariableBit rate : 2 b/sStream size : 1.88 KiB (0%)Title : Russian / ForcedForced : NoEncoded date : UTC 2018-08-10 12:38:33Tagged date : UTC 2018-08-10 12:38:33
Text #2ID : 8Format : Timed TextCodec ID : tx3gDuration : 1 h 45 minBit rate mode : VariableBit rate : 71 b/sStream size : 54.6 KiB (0%)Title : Russian / FullForced : NoEncoded date : UTC 2018-08-10 12:38:33Tagged date : UTC 2018-08-10 12:38:33
Text #3ID : 9Format : Timed TextCodec ID : tx3gDuration : 1 h 45 minBit rate mode : VariableBit rate : 79 b/sStream size : 61.1 KiB (0%)Title : Russian / Full MedveditsaForced : NoEncoded date : UTC 2018-08-10 12:38:33Tagged date : UTC 2018-08-10 12:38:33
Text #4ID : 10Format : Timed TextCodec ID : tx3gDuration : 1 h 46 minBit rate mode : VariableBit rate : 71 b/sStream size : 55.3 KiB (0%)Title : Russian / Full NotabenoidForced : NoEncoded date : UTC 2018-08-10 12:38:33Tagged date : UTC 2018-08-10 12:38:33
Text #5ID : 11Format : Timed TextCodec ID : tx3gDuration : 1 h 15 minBit rate mode : VariableBit rate : 2 b/sStream size : 1.08 KiB (0%)Title : English / ForcedForced : NoEncoded date : UTC 2018-08-10 12:38:33Tagged date : UTC 2018-08-10 12:38:33
Text #6ID : 12Format : Timed TextCodec ID : tx3gDuration : 1 h 45 minBit rate mode : VariableBit rate : 48 b/sStream size : 37.4 KiB (0%)Title : English / FullForced : NoEncoded date : UTC 2018-08-10 12:38:33Tagged date : UTC 2018-08-10 12:38:33
Text #7ID : 13Format : Timed TextCodec ID : tx3gDuration : 1 h 51 minBit rate mode : VariableBit rate : 52 b/sStream size : 42.3 KiB (0%)Title : English / SDHForced : NoEncoded date : UTC 2018-08-10 12:38:33Tagged date : UTC 2018-08-10 12:38:33
Text #8ID : 14Format : Timed TextCodec ID : tx3gDuration : 1 h 51 minBit rate mode : VariableBit rate : 64 b/sStream size : 52.5 KiB (0%)Title : English / SDH ColoredForced : NoEncoded date : UTC 2018-08-10 12:38:33Tagged date : UTC 2018-08-10 12:38:33

Тор: Рагнарёк 2017

Тор: Рагнарёк / Thor: Ragnarok- - -Год выхода: 2017
Страна: США
Жанр: фэнтези, боевик, приключения
Продолжительность: 02:10:30
Перевод №1: русский Профессиональный (полное дублирование) Blu-Ray EUR
Перевод №2: украинский Профессиональный (полное дублирование)
Перевод №3: русский Авторский (одноголосый, закадровый) Ю.Живов
Оригинальная дорожка: Есть
Субтитры: русские (форсированные), (полные), украинские (форсированные), английские (полные)
-Режиссер: Тайка Вайтити / Taika Waititi-В ролях: Крис Хемсворт, Том Хиддлстон, Кейт Бланшетт, Идрис Эльба, Джефф Голдблюм, Тесса Томпсон, Карл Урбан, Марк Руффало, Энтони Хопкинс, Бенедикт Камбербэтч, Тайка Вайтити и другие .-Описание: Вернувшись в Асгард в поисках таинственного врага, ведущего охоту на Камни Бесконечности, Тор обнаруживает, что действия его брата Локи, захватившего трон Асгарда, привели к приближению наиболее страшного события — Рагнарёка. По легенде это ознаменует последнюю битву Асгарда, последствием которой станет его полное уничтожение. В попытке предотвратить это событие Тору предстоит прибегнуть к помощи своего товарища из Мстителей — Халка. Вместе им предстоит столкнуться лицом к лицу со злейшим врагом всех девяти миров — огненным демоном Суртуром, целью которого является исполнение пророчества о Рагнарёке и уничтожение девяти миров .-[img]https://rating.kinopoisk.ru/822709.gif[/img] -Качество: BDRip / рип с Blu-ray disc 1080p [EUR]
Формат файла: MP4
Видео кодек: H.264
Аудио кодек: AAC
Видео: 1280x536 AR:2.39 2300 kbps 23.976 fps
Аудио №1: [Russian] 2ch 48 kHz 128 kbps - [Dub] Профессиональный (полное дублирование) Blu-Ray EUR
Аудио №2: [Ukrainian] 2ch 48 kHz 128 kbps - [Dub] Профессиональный (полное дублирование)
Аудио №3: [Russian] 2ch 48 kHz 128 kbps - [VO] Авторский (одноголосый, закадровый) Ю.Живов
Аудио №4: [English] 2ch 48 kHz 128 kbps - Original
-

Logx264

avs [info]: 1280x536p 1:1 @ 24000/1001 fps (cfr)
x264 [info]: using SAR=1/1
x264 [info]: using cpu capabilities: MMX2 SSE2Fast SSSE3 SSE4.2 AVX FMA3 BMI2 AVX2
x264 [info]: profile High, level 4.1
x264 [info]: frame I:2106 Avg QP:17.13 size: 84900
x264 [info]: frame P:50851 Avg QP:20.99 size: 22580
x264 [info]: frame B:134792 Avg QP:22.86 size: 6857
x264 [info]: consecutive B-frames: 5.9% 4.3% 17.0% 23.6% 17.6% 25.9% 3.4% 1.1% 0.7% 0.5%
x264 [info]: mb I I16..4: 3.9% 76.0% 20.1%
x264 [info]: mb P I16..4: 1.7% 11.4% 1.9% P16..4: 35.1% 34.2% 8.4% 0.0% 0.0% skip: 7.3%
x264 [info]: mb B I16..4: 0.1% 1.3% 0.2% B16..8: 34.1% 15.4% 2.1% direct: 3.7% skip:43.2% L0:42.5% L1:45.7% BI:11.7%
x264 [info]: 8x8 transform intra:76.9% inter:65.7%
x264 [info]: direct mvs spatial:96.2% temporal:3.8%
x264 [info]: coded y,uvDC,uvAC intra: 82.8% 76.7% 42.8% inter: 17.9% 13.6% 4.3%
x264 [info]: i16 v,h,dc,p: 8% 14% 2% 76%
x264 [info]: i8 v,h,dc,ddl,ddr,vr,hd,vl,hu: 9% 7% 3% 10% 15% 14% 16% 12% 14%
x264 [info]: i4 v,h,dc,ddl,ddr,vr,hd,vl,hu: 11% 9% 3% 9% 16% 14% 15% 10% 12%
x264 [info]: i8c dc,h,v,p: 31% 28% 19% 22%
x264 [info]: Weighted P-Frames: Y:14.2% UV:9.5%
x264 [info]: ref P L0: 52.9% 11.7% 16.2% 5.7% 4.3% 3.3% 2.9% 2.3% 0.5% 0.1%
x264 [info]: ref B L0: 78.2% 11.0% 4.6% 2.3% 1.6% 1.9% 0.4%
x264 [info]: ref B L1: 95.6% 4.4%
x264 [info]: kb/s:2299.95
encoded 187749 frames, 11.15 fps, 2299.95 kb/s

ТХ/MediaInfo

GeneralComplete name : K:\Torrents\Thor Trilogy.2011-2017.BDRip.x264.1280x\Thor Ragnarok.2017.BDRip.x264.1280x.rip by Frost O.S.mp4Format : MPEG-4Format profile : 3GPP Release 6 GeneralCodec ID : 3gg6 (isom/3gg6/mp42)File size : 2.57 GiBDuration : 2 h 10 minOverall bit rate mode : VariableOverall bit rate : 2 821 kb/sEncoded date : UTC 2018-08-10 11:40:14Tagged date : UTC 2018-08-10 11:40:14
VideoID : 1Format : AVCFormat/Info : Advanced Video CodecFormat profile : High@L4.1Format settings : CABAC / 8 Ref FramesFormat settings, CABAC : YesFormat settings, RefFrames : 8 framesCodec ID : avc1Codec ID/Info : Advanced Video CodingDuration : 2 h 10 minBit rate : 2 300 kb/sMaximum bit rate : 9 662 kb/sWidth : 1 280 pixelsHeight : 536 pixelsDisplay aspect ratio : 2.40:1Frame rate mode : ConstantFrame rate : 23.976 (24000/1001) FPSColor space : YUVChroma subsampling : 4:2:0Bit depth : 8 bitsScan type : ProgressiveBits/(Pixel*Frame) : 0.140Stream size : 2.10 GiB (82%)Writing library : x264 core 152 r2851 ba24899Encoding settings : cabac=1 / ref=8 / deblock=1:-2:-1 / analyse=0x3:0x113 / me=umh / subme=11 / psy=1 / psy_rd=1.00:0.00 / mixed_ref=1 / me_range=32 / chroma_me=1 / trellis=2 / 8x8dct=1 / cqm=0 / deadzone=21,11 / fast_pskip=0 / chroma_qp_offset=-2 / threads=6 / lookahead_threads=1 / sliced_threads=0 / nr=0 / decimate=0 / interlaced=0 / bluray_compat=0 / constrained_intra=0 / bframes=9 / b_pyramid=2 / b_adapt=2 / b_bias=0 / direct=3 / weightb=1 / open_gop=0 / weightp=2 / keyint=250 / keyint_min=23 / scenecut=40 / intra_refresh=0 / rc=2pass / mbtree=0 / bitrate=2300 / ratetol=1.0 / qcomp=0.70 / qpmin=0 / qpmax=69 / qpstep=4 / cplxblur=20.0 / qblur=0.5 / ip_ratio=1.40 / pb_ratio=1.30 / aq=1:0.80Encoded date : UTC 2018-08-09 13:48:19Tagged date : UTC 2018-08-10 11:40:59Color range : LimitedColor primaries : BT.709Transfer characteristics : BT.709Matrix coefficients : BT.709
Audio #1ID : 2Format : AACFormat/Info : Advanced Audio CodecFormat profile : LCCodec ID : mp4a-40-2Duration : 2 h 10 minBit rate mode : VariableBit rate : 128 kb/sMaximum bit rate : 134 kb/sChannel(s) : 2 channelsChannel positions : Front: L RSampling rate : 48.0 kHzFrame rate : 46.875 FPS (1024 SPF)Compression mode : LossyStream size : 119 MiB (5%)Title : Russian / Dub, Blu-Ray EUREncoded date : UTC 2018-08-10 10:51:19Tagged date : UTC 2018-08-10 11:40:59
Audio #2ID : 3Format : AACFormat/Info : Advanced Audio CodecFormat profile : LCCodec ID : mp4a-40-2Duration : 2 h 10 minBit rate mode : VariableBit rate : 128 kb/sMaximum bit rate : 133 kb/sChannel(s) : 2 channelsChannel positions : Front: L RSampling rate : 48.0 kHzFrame rate : 46.875 FPS (1024 SPF)Compression mode : LossyStream size : 119 MiB (5%)Title : Ukrainian / DubEncoded date : UTC 2018-08-10 10:55:15Tagged date : UTC 2018-08-10 11:40:59
Audio #3ID : 4Format : AACFormat/Info : Advanced Audio CodecFormat profile : LCCodec ID : mp4a-40-2Duration : 2 h 10 minBit rate mode : VariableBit rate : 128 kb/sMaximum bit rate : 135 kb/sChannel(s) : 2 channelsChannel positions : Front: L RSampling rate : 48.0 kHzFrame rate : 46.875 FPS (1024 SPF)Compression mode : LossyStream size : 119 MiB (5%)Title : Russian / VO, ZhuvovEncoded date : UTC 2018-08-10 10:59:09Tagged date : UTC 2018-08-10 11:40:59
Audio #4ID : 5Format : AACFormat/Info : Advanced Audio CodecFormat profile : LCCodec ID : mp4a-40-2Duration : 2 h 10 minBit rate mode : VariableBit rate : 128 kb/sMaximum bit rate : 135 kb/sChannel(s) : 2 channelsChannel positions : Front: L RSampling rate : 48.0 kHzFrame rate : 46.875 FPS (1024 SPF)Compression mode : LossyStream size : 119 MiB (5%)Title : English / OriginalEncoded date : UTC 2018-08-10 10:46:53Tagged date : UTC 2018-08-10 11:40:59
Text #1ID : 6Format : Timed TextCodec ID : tx3gDuration : 2 h 10 minBit rate mode : VariableBit rate : 0 b/sStream size : 228 Bytes (0%)Title : Russian / ForcedForced : NoEncoded date : UTC 2018-08-10 11:40:59Tagged date : UTC 2018-08-10 11:40:59
Text #2ID : 7Format : Timed TextCodec ID : tx3gDuration : 2 h 10 minBit rate mode : VariableBit rate : 82 b/sStream size : 78.2 KiB (0%)Title : Russian / FullForced : NoEncoded date : UTC 2018-08-10 11:40:59Tagged date : UTC 2018-08-10 11:40:59
Text #3ID : 8Format : Timed TextCodec ID : tx3gDuration : 2 h 10 minBit rate mode : VariableBit rate : 0 b/sStream size : 260 Bytes (0%)Title : Ukrainian / ForcedForced : NoEncoded date : UTC 2018-08-10 11:40:59Tagged date : UTC 2018-08-10 11:40:59
Text #4ID : 9Format : Timed TextCodec ID : tx3gDuration : 2 h 10 minBit rate mode : VariableBit rate : 67 b/sStream size : 63.7 KiB (0%)Title : English / FullForced : NoEncoded date : UTC 2018-08-10 11:40:59Tagged date : UTC 2018-08-10 11:40:59


[torrentc.info]_t_5595589.torrent
Торрент: Зарегистрирован ·  [ 2018-08-12 21:33 ] ·  02e4a4edfec55425432e06ccab00254ee2529fa2

38 KB

Статус: проверено
Скачан: 0 раз
Размер: 7.42 GB
Оценка: 
(Голосов: 0)
Сказали спасибо: 0  Спасибо
Похожие темы
[Профиль]    [ЛС]
Показать сообщения:    
Ответить на тему

Текущее время: Сегодня 05:21

Часовой пояс: GMT + 7



Вы не можете начинать темы
Вы не можете отвечать на сообщения
Вы не можете редактировать свои сообщения
Вы не можете удалять свои сообщения
Вы не можете голосовать в опросах
Вы не можете прикреплять файлы к сообщениям
Вы можете скачивать файлы